Regarder Momo en Streaming Gratuit | 下载 APK | A Student's Manual for A First Course in General Relativity (2016) - pdf - zeke23

Скачать через торрент Международная пилорама с Тиграном Кеосаяном 2018.03.17 Фильм бесплатно в хорошем качестве torrent

Скачивайте на UnionPeer.org фильмы через торрент без регистрации. Новинки кино в хорошем качестве через торрент. На UnionPeer.org можно скачать через торрент фильмы 2014 и 2015 годов. Самые новые фильмы.

Скачать торрент Международная пилорама с Тиграном Кеосаяном 2018.03.17 бесплатно через .torrent фильм мультфильм сериал

Статистика раздачи
Размер:  2.26 GB   |    Зарегистрирован:  4 месяца   |    .torrent скачан:  44 раза   |   
Раздают:  1  
   
загрузка...
 
Автор Сообщение

Galfimbul

avatar Galfimbul


Международная пилорама с Тиграном Кеосаяном 2018.03.17

Дата/Год выпуска: 2018
Страна: Россия
Жанр: Юмористическое политическое шоу
Продолжительность: 00:35:28
Перевод: Не требуется
Русские субтитры: нет

Оригинальная аудиодорожка: русский
Телеканал: НТВ
Описание: «Международная пилорама» сэкономит время телезрителей. Следить за политической обстановкой в мире, колебаниями курсов валют и новостями шоу-бизнеса теперь вовсе не обязательно. Каждую субботу Тигран Эдмондович в свойственной ему язвительной манере будет разбирать события мировой политики. Под огонь его едких комментариев попадут многие — от журналистов до политических лидеров.

качество: HDTV 1080i
формат: MKV
Видео: AVC, 1920x1080, (16:9), 25 fps, 9.0 Mbps
Аудио: RUS, MP2, 2 ch, 48 KHz, 192 Kbps
GeneralUnique ID : 157402830003291640518773247569887918854 (0x766AAEAF5F36DCC097409196E5F27B06)Complete name : C:\Международная пилорама с Тиграном Кеосаяном 2018.03.17.mkvFormat : MatroskaFormat version : Version 4 / Version 2File size : 2.26 GiBDuration : 35 min 28 sOverall bit rate : 9 135 kb/sEncoded date : UTC 2018-03-18 22:18:55Writing application : mkvmerge v21.0.0 ('Tardigrades Will Inherit The Earth') 32-bitWriting library : libebml v1.3.5 + libmatroska v1.4.8

VideoID : 1Format : AVCFormat/Info : Advanced Video CodecFormat profile : [email protected] settings : CABAC / 4 Ref FramesFormat settings, CABAC : YesFormat settings, RefFrames : 4 framesCodec ID : V_MPEG4/ISO/AVCDuration : 35 min 28 sBit rate : 8 939 kb/sWidth : 1 920 pixelsHeight : 1 080 pixelsDisplay aspect ratio : 16:9Frame rate mode : VariableFrame rate : 50.000 FPSOriginal frame rate : 25.000 FPSStandard : ComponentColor space : YUVChroma subsampling : 4:2:0Bit depth : 8 bitsScan type : InterlacedScan type, store method : Separated fieldsScan order : Top Field FirstBits/(Pixel*Frame) : 0.086Stream size : 2.22 GiB (98%)Default : YesForced : NoColor range : LimitedColor primaries : BT.709Transfer characteristics : BT.709Matrix coefficients : BT.709

AudioID : 2Format : MPEG AudioFormat version : Version 1Format profile : Layer 2Codec ID : A_MPEG/L2Codec ID/Hint : MP2Duration : 35 min 28 sBit rate mode : ConstantBit rate : 192 kb/sChannel(s) : 2 channelsSampling rate : 48.0 kHzFrame rate : 41.667 FPS (1152 SPF)Compression mode : LossyStream size : 48.7 MiB (2%)Language : RussianDefault : YesForced : No


Трекер:  [ 19-Мар-2018 01:42 ]

  

Скачать .torrent

Размер .torrent файла 12 KB


Размер: 2.26 GB
Хэш (hash) релиза: e2111b1ae98e834d73f161fea4ae5c745e0a1bb0
Подписка на обновления:

Еще никто не оставлял запись к записи скачать торрент Международная пилорама с Тиграном Кеосаяном 2018.03.17 . Будь первым!

!Обратная связь