Welcome the Stranger FRENCH WEBRIP 1080p 2018 | videók megtekintése | os increíbles 2 (2018)

Скачать через торрент [SERIAL] Лучше звоните Солу Better Call Saul бесплатно русская версия torrent активатор

Статистика раздачи
Размер:  6.35 GB   |    Зарегистрирован:  5 месяцев   |    .torrent скачан:  36 раз   |   
Раздают:  1  
   
загрузка...
 
Автор Сообщение

Galfimbul

avatar Galfimbul


Лучше звоните Солу / Better Call Saul

Год выпуска: 2015

Страна: США
Жанр: драма, криминал
Продолжительность: 30 x ~00:47:00
Перевод: Профессиональный (двухголосый закадровый) Кубик в Кубе
Субтитры: нет
Оригинальная аудиодорожка: нет

Режиссер: Винс Гиллиган, Томас Шнауз, Адам Бернштейн
В ролях: Боб Оденкёрк, Джонатан Бэнкс, Ри Сихорн, Майкл МакКин, Патрик Фабиан, Майкл Мэндо, Керри Кондон, Эйлин Фогарти, Стив Ларесэ, Джули Энн Эмери, Джереми Шамос, Виктория Пэм-Гилкрист, Ким Лан Т. Пэм, Пау Тхи Дуонг, Дэннис Буцикарис, Ген Н. Чавес, Брайан Барела, Винсент Фуэнтес, Эд Бегли мл., Марк Прокш
Описание: История об испытаниях и невзгодах, которые приходится преодолеть Солу Гудману, адвокату по уголовным делам, в тот период, когда он пытается открыть свою собственную адвокатскую контору в Альбукерке, штат Нью-Мексико.
Исходник: Generalfilm
Качество: WEBRip
Формат: MP4
Видео: MPEG-4 AVC (x264), 640x360, ~500 kbps, 23.976 fps
Аудио: AAC LC, 48.0 KHz, 2 ch, 128 Kbps
Сэмпл | КИНОПОИСК | IMDB | Предыдущие и альтернативные раздачи
GeneralComplete name : /home/roma/Видиво/Luchshe.Zvonite.Solu.AVC.KPK.GF/Luchshe.Zvonite.Solu.S01.2015.AVC.WEBRip.KPK.KvK.GF/Luchshe.Zvonite.Solu.s01e01.2015.AVC.WEBRip.KPK.KvK.GF.mp4Format : MPEG-4Codec ID : M4V (isom/iso2/avc1)File size : 242 MiBDuration : 53 min 17 sOverall bit rate mode : VariableOverall bit rate : 634 kb/sWriting application : Lavf53.19.0

VideoID : 1Format : AVCFormat/Info : Advanced Video CodecFormat profile : [email protected] settings, CABAC : YesFormat settings, RefFrames : 8 framesCodec ID : avc1Codec ID/Info : Advanced Video CodingDuration : 53 min 17 sBit rate : 500 kb/sWidth : 640 pixelsHeight : 360 pixelsDisplay aspect ratio : 16:9Frame rate mode : ConstantFrame rate : 23.976 (24000/1001) FPSColor space : YUVChroma subsampling : 4:2:0Bit depth : 8 bitsScan type : ProgressiveBits/(Pixel*Frame) : 0.091Stream size : 191 MiB (79%)Writing library : x264 core 148 r2638 7599210Encoding settings : cabac=1 / ref=8 / deblock=1:-2:-2 / analyse=0x3:0x133 / me=umh / subme=10 / psy=1 / psy_rd=1.00:0.00 / mixed_ref=1 / me_range=24 / chroma_me=1 / trellis=2 / 8x8dct=1 / cqm=0 / deadzone=21,11 / fast_pskip=1 / chroma_qp_offset=-2 / threads=6 / lookahead_threads=1 / sliced_threads=0 / nr=0 / decimate=0 / interlaced=0 / bluray_compat=0 / constrained_intra=0 / bframes=8 / b_pyramid=2 / b_adapt=2 / b_bias=0 / direct=3 / weightb=1 / open_gop=0 / weightp=2 / keyint=240 / keyint_min=121 / scenecut=40 / intra_refresh=0 / rc_lookahead=40 / rc=2pass / mbtree=1 / bitrate=500 / ratetol=1.0 / qcomp=0.60 / qpmin=0 / qpmax=69 / qpstep=4 / cplxblur=20.0 / qblur=0.5 / ip_ratio=1.40 / aq=1:1.00Menus : 3

AudioID : 2Format : AACFormat/Info : Advanced Audio CodecFormat profile : LCCodec ID : 40Duration : 53 min 17 sBit rate mode : VariableBit rate : 128 kb/sChannel(s) : 2 channelsChannel positions : Front: L RSampling rate : 48.0 kHzFrame rate : 46.875 FPS (1024 SPF)Compression mode : LossyStream size : 48.8 MiB (20%)Default : YesAlternate group : 1Menus : 3

Menu #1ID : 3Duration : 53 min 17 sLanguage : EnglishMenu For : 1,2

Menu #2


Трекер:  [ 18-Мар-2018 21:06 ]

  

Скачать .torrent

Размер .torrent файла 68 KB


Размер: 6.35 GB
Хэш (hash) релиза: 65c03de63acca29d5ef110236456d27d1e758e82

Еще никто не оставлял запись к записи скачать торрент [SERIAL] Лучше звоните Солу Better Call Saul . Будь первым!

!Обратная связь