detective conan episodes 140 a 150 fr tv rip [ french] | Roy Gordon | Chapter 3 : I Can't Communicate Well

Скачать порно через торрент [WankzVR.com] Jenna Jay, Zoey Monroe UnionPeer.org бесплатно онлайн HD качество

Скачать новое порно 2015, 2014 новинки через торрент UnionPeer.org

Порно торрент бесплатно ЮнионПир.орг

Статистика раздачи
Размер:  3.7 GB   |    Зарегистрирован:  5 месяцев 3 дня   |    .torrent скачан:  104 раза   |   
Раздают:  1  
   
загрузка...
 
Автор Сообщение

Galfimbul

avatar Galfimbul


Имя актрисы: Jenna Jay, Zoey Monroe
Название ролика: VIP Lap Dance
Сайт: WankzVR.com

Год производства: 2016 г.
Жанр: Big Cocks, Blonde, Blowjob, Brunette, College, Cowgirl, FFM, Kissing, Cum in Mouth, Reverse Cowgirl, Threesomes
Продолжительность: 37:04

Описание: With VR porn, there are no limits or taboos. In this scene, live out the outrageously hot fantasy of having two babes at once! Your wife, Jenna Jay just came home and she brought hot female friend, Zoey Monroe with her! Just put on your VR headset and sit back and enjoy the show as these two gorgeous girls ride the stripper pole and then take turns riding your dick! With fully immersive VR technology, you aren''t just watching porn, you are INSIDE the porn! Go ahead and enjoy that threesome you''ve always wanted! This VR porn scene is compatible with Google Cardboard, Samsung Gear VR and of course, the Oculus Rift! Bring your porn to life!

Тип HD видео: 1600p
Тип устройства: Samsung Gear VR
Тип 3D: SideBySide
Формат видео: MP4
Видео: H264 3200x1600 29.97fps 13971kbps
Аудио: AAC 48000Hz stereo 317kbps
General
Complete name : wankzvr-vip-lap-dance-180_180x180_3dh_LR_gearvr.mp4
Format : MPEG-4
Codec ID : M4V
File size : 3.70 GiB
Duration : 37mn 4s
Overall bit rate mode : Variable
Overall bit rate : 14.3 Mbps
Encoded date : UTC 2016-03-22 14:56:27
Tagged date : UTC 2016-03-22 14:56:27

Video
ID : 1
Format : AVC
Format/Info : Advanced Video Codec
Format profile : [email protected]
Format settings, CABAC : Yes
Format settings, ReFrames : 2 frames
Codec ID : avc1
Codec ID/Info : Advanced Video Coding
Duration : 37mn 4s
Bit rate mode : Variable
Bit rate : 14.0 Mbps
Maximum bit rate : 15.4 Mbps
Width : 3 200 pixels
Height : 1 600 pixels
Display aspect ratio : 2.000
Frame rate mode : Constant
Frame rate : 29.970 fps
Color space : YUV
Chroma subsampling : 4:2:0
Bit depth : 8 bits
Scan type : Progressive
Bits/(Pixel*Frame) : 0.091
Stream size : 3.62 GiB (98%)
Encoded date : UTC 2016-03-22 14:56:27
Tagged date : UTC 2016-03-22 14:56:27

Audio
ID : 2
Format : AAC
Format/Info : Advanced Audio Codec
Format profile : LC
Codec ID : 40
Duration : 37mn 4s
Bit rate mode : Variable
Bit rate : 320 Kbps
Maximum bit rate : 324 Kbps
Channel(s) : 2 channels
Channel positions : Front: L R
Sampling rate : 48.0 KHz
Compression mode : Lossy
Stream size : 84.2 MiB (2%)
Encoded date : UTC 2016-03-22 14:56:27
Tagged date : UTC 2016-03-22 14:56:27


Трекер:  [ 18-Мар-2018 18:26 ]

  

Скачать .torrent

Размер .torrent файла 19 KB


Размер: 3.7 GB
Хэш (hash) релиза: b9721536bb1c22307ac1355ef8d0aaa0a970533d

Еще никто не оставлял запись к записи скачать торрент [WankzVR.com] Jenna Jay, Zoey Monroe . Будь первым!

!Обратная связь