Autres consoles | Watch movie | American Idol S14E16 HDTV x264-W4F [eztv]

Скачать через торрент [SERIAL] Счастливая долина Happy Valley бесплатно русская версия torrent активатор

Статистика раздачи
Размер:  1.31 GB   |    Зарегистрирован:  2 месяца 7 дней   |    .torrent скачан:  19 раз   |   
Раздают:  1  
   
загрузка...
 
Автор Сообщение

Galfimbul

avatar Galfimbul


Счастливая долина / Happy Valley

Год выпуска: 2014

Страна: Великобритания
Жанр: драма, криминал
Продолжительность: ~00:59:00
Перевод: Профессиональный (многоголосый закадровый) SDI Media
Субтитры: нет
Оригинальная аудиодорожка: нет

Режиссер: Салли Уэйнрайт, Эрос Лин, Тим Файвелл
В ролях: Сара Ланкашир, Стив Пембертон, Джеймс Нортон, Адам Лонг, Джо Армстронг, Джордж Костиган, Шиван Финнеран, Чарли Мерфи, Джилл Бейкер
Описание: Кэтрин Кэйвуд — сержант полиции Западного Йоркшира. Во время ее дежурства в участок приходит бухгалтер Кевин, чтобы заявить о преступлении. Он очень нервничает и не хочет сообщать детали. Затем выясняется, что когда-то Кевин придумал похитить дочь своего босса и использовать выкуп, чтобы оплатить частную школу для своих детей, и вот теперь местный наркоторговец воплотил фантазию Кевина в жизнь.

Сэмпл | КИНОПОИСК | IMDB | Предыдущие и альтернативные раздачи

Исходник: Generalfilm
Качество: HDRip
Формат: MP4
Видео: Н.264, 640x352 (16:9), 25.000 fps, 400 Kbps
Аудио: AAC LC, 48.0 KHz, 2 ch, 128 Kbps
GeneralComplete name : /home/roma/Видиво/Schastlivaya.dolina.S01.by.mjjhec/Happy.Valley.s01e01.mp4Format : MPEG-4Format profile : Base MediaCodec ID : isom (isom/avc1/iso6)File size : 222 MiBDuration : 58 min 17 sOverall bit rate mode : VariableOverall bit rate : 532 kb/sEncoded date : UTC 2017-12-25 11:52:59Tagged date : UTC 2017-12-25 11:52:59

VideoID : 1Format : AVCFormat/Info : Advanced Video CodecFormat profile : [email protected] settings, CABAC : YesFormat settings, RefFrames : 10 framesCodec ID : avc1Codec ID/Info : Advanced Video CodingDuration : 58 min 17 sBit rate : 400 kb/sMaximum bit rate : 1 053 kb/sWidth : 640 pixelsHeight : 352 pixelsDisplay aspect ratio : 16:9Frame rate mode : ConstantFrame rate : 25.000 FPSColor space : YUVChroma subsampling : 4:2:0Bit depth : 8 bitsScan type : ProgressiveBits/(Pixel*Frame) : 0.071Stream size : 167 MiB (75%)Title : [email protected]-DEV-rev248-g39d5978-masterWriting library : x264 core 146 r2538 121396cEncoding settings : cabac=1 / ref=10 / deblock=1:-3:-3 / analyse=0x3:0x133 / me=umh / subme=11 / psy=1 / psy_rd=1.00:1.00 / mixed_ref=1 / me_range=48 / chroma_me=1 / trellis=2 / 8x8dct=1 / cqm=0 / deadzone=21,11 / fast_pskip=1 / chroma_qp_offset=-4 / threads=6 / lookahead_threads=1 / sliced_threads=0 / nr=0 / decimate=0 / interlaced=0 / bluray_compat=0 / constrained_intra=0 / bframes=10 / b_pyramid=2 / b_adapt=2 / b_bias=0 / direct=3 / weightb=1 / open_gop=0 / weightp=2 / keyint=240 / keyint_min=24 / scenecut=40 / intra_refresh=0 / rc_lookahead=60 / rc=2pass / mbtree=0 / bitrate=400 / ratetol=1.0 / qcomp=0.60 / qpmin=0 / qpmax=69 / qpstep=4 / cplxblur=20.0 / qblur=0.5 / vbv_maxrate=14000 / vbv_bufsize=14000 / nal_hrd=none / filler=0 / ip_ratio=1.40 / pb_ratio=1.30 / aq=1:1.00Encoded date : UTC 2017-12-25 11:52:59Tagged date : UTC 2017-12-25 11:53:03

AudioID : 2Format : AACFormat/Info : Advanced Audio CodecFormat profile : LCCodec ID : 40Duration : 58 min 17 sBit rate mode : VariableBit rate : 128 kb/sMaximum bit rate : 134 kb/sChannel(s) : 2 channelsChannel positions : Front: L RSampling rate : 48.0 kHzFrame rate : 46.875 FPS (1024 SPF)Compression mode : LossyStream size : 53.4 MiB (24%)Encoded date : UTC 2017-12-25 10:55:30Tagged date : UTC 2017-12-25 11:53:03


Трекер:  [ 18-Мар-2018 17:36 ]

  

Скачать .torrent

Размер .torrent файла 27 KB


Размер: 1.31 GB
Хэш (hash) релиза: b630f2d3e77e6efe190a24bcde966d63d79ec32a

Торренты, похожие на [SERIAL] Счастливая долина Happy Valley скачать торрент

Форум Название Автор Размер S L Добавлен
Видео (Фильмы/Клипы) ·· [SERIAL] Счастливая долина / Happy Valley / Сезон: 2 / Серии: 1-6 из 6 (Салли Уэйнрайт, Эрос Лин, Тим Файвелл / Sally Wainwright, Euros Lyn, Tim Fywell) [2016, драма, криминал, HDRip] [MP4, 640x] MVO SDI Media Galfimbul 13998969981.3 GB 0 0 1521385589

18:06

18-Мар-18

Еще никто не оставлял запись к записи скачать торрент [SERIAL] Счастливая долина Happy Valley . Будь первым!

!Обратная связь