Barbie: The Pearl Princess
Histoire

Скачать через торрент Страна под названием Дом A Country Called Home бесплатно русская версия torrent активатор

Статистика раздачи
Размер:  1.46 GB   |    Зарегистрирован:  1 месяц 2 дня   |    .torrent скачан:  17 раз   |   
Раздают:  1  
   
загрузка...
 
Автор Сообщение

Galfimbul

avatar Galfimbul


Страна под названием Дом / A Country Called Home

Страна: США
Жанр: Драма
Год выпуска: 2015
Продолжительность: 01:32:30

Перевод: Одноголосый закадровый (Алексей Толмачев)
Перевод на русский язык: Алексей Толмачев
Субтитры: нет

Режиссер: Анна Акстер / Anna Axster

В ролях: Имоджен Путс /Imogen Poots/, Макензи Дэвис /Mackenzie Davis/, Мэри Маккормак /Mary McCormack/, Райан Бингхэм /Ryan Bingham/, Джун Скуибб /June Squibb/, Норман Беннетт /Norman Bennett/, Шиа Уингхэм /Shea Whigham/, Джо Стивенс /Joe Stevens/, Джош Хелман /Josh Helman/

Описание: Главная героиня фильма - Элли (Имоджен Путс), которая в свои 27 лет все еще не может сказать, что добилась каких-то определенных целей. Надоедливые друзья, эгоистичный бойфренд и нелюбимая работа, все это заставляет Элли чувствовать себя оторванной от собственной жизни. Но привычный ход вещей в один момент меняется, когда девушка узнает о смерти своего непутевого отца-алкоголика. Она решает отправится в небольшой техасский городок, где тот коротал последние годы жизни вдали от детей, чтобы проводить его в последний путь...



Возрастные ограничения: 16+

Сэмпл: http://multi-up.com/1191152

Качество видео: WEBRip (исходник: A.Country.Called.Home.2015.1080p.NF.WEBRip.DD5.1.x264-QOQ)
Формат видео: AVI

Видео: 688x288 (2.40:1), 23.976 fps, XviD 64, ~2121 kbps, 0.446 bit/pixel
Аудио: 48.0 kHz, MP3, 2 ch, 128 kbps
General
Format : AVI
Format/Info : Audio Video Interleave
File size : 1.46 GiB
Duration : 1h 32mn
Overall bit rate : 2 258 Kbps
Writing application : VirtualDubMod 1.5.10.2 (build 2540/release)
Writing library : VirtualDubMod build 2540/release

Video
ID : 0
Format : MPEG-4 Visual
Format profile : Advanced [email protected]
Format settings, BVOP : 1
Format settings, QPel : No
Format settings, GMC : No warppoints
Format settings, Matrix : Default (MPEG)
Codec ID : XVID
Codec ID/Hint : XviD
Duration : 1h 32mn
Bit rate : 2 121 Kbps
Width : 688 pixels
Height : 288 pixels
Display aspect ratio : 2.40:1
Frame rate : 23.976 fps
Color space : YUV
Chroma subsampling : 4:2:0
Bit depth : 8 bits
Scan type : Progressive
Compression mode : Lossy
Bits/(Pixel*Frame) : 0.446
Stream size : 1.37 GiB (94%)
Writing library : XviD 64

Audio
ID : 1
Format : MPEG Audio
Format version : Version 1
Format profile : Layer 3
Mode : Joint stereo
Mode extension : MS Stereo
Codec ID : 55
Codec ID/Hint : MP3
Duration : 1h 32mn
Bit rate mode : Constant
Bit rate : 128 Kbps
Channel count : 2 channels
Sampling rate : 48.0 KHz
Compression mode : Lossy
Stream size : 84.7 MiB (6%)
Alignment : Split accross interleaves
Interleave, duration : 42 ms (1.00 video frame)
Interleave, preload duration : 500 ms


Трекер:  [ 17-Мар-2018 13:30 ]

  

Скачать .torrent

Размер .torrent файла 15 KB


Размер: 1.46 GB
Хэш (hash) релиза: c8ac11beb6e78244c994ea47695ab80218673c94

Еще никто не оставлял запись к записи скачать торрент Страна под названием Дом A Country Called Home . Будь первым!

!Обратная связь