Upcoming
Originlab Originpro 9.1

Скачать через торрент Уиджи: Проклятие Вероники Verónica бесплатно русская версия torrent активатор

Статистика раздачи
Размер:  1.46 GB   |    Зарегистрирован:  1 месяц 2 дня   |    .torrent скачан:  14 раз   |   
Раздают:  1  
   
загрузка...
 
Автор Сообщение

Galfimbul

avatar Galfimbul


Уиджи: Проклятие Вероники / Verónica
«Не зови того, кого не сможешь остановить»

Год выхода: 2017
Выпущено: Испания / Apaches Entertainment
Жанр: ужасы, драма
Продолжительность: 01:45:22
Перевод: Профессиональный (полное дублирование) Line
Субтитры: нет
Оригинальная аудиодорожка: испанская
Режиссер:
Пако Пласа / Paco Plaza
В ролях:
Сандра Эскасена, Бруна Гонсалес, Клаудия Плейсер, Иван Чаверо, Ана Торрент, Консуэло Трухильо, Анхела Фабиан, Карла Кампра, Чема Адева, Миранда Гас
О фильме:
Уиджи — это доска для спиритических сеансов вызова душ умерших. Ее называют доской Дьявола, потому что общение с загробным миром не обходится для живого человека без последствий. Тот, кто берет в руки Уиджи, должен знать, что она обладает страшной властью открывать врата чудовищному злу, противостоять которому практически невозможно.
Вероника, красивая и веселая старшеклассница, даже представить не могла, чем для нее закончится то, что она считала невинной игрой…
Релиз групп | | IMDB | КиноПоиск | Сэмпл |
Качество: HDRip [Veronica 2017 1080p BluRay DTS x264-USURY]
Формат: AVI

Видео: 704x384 (1.83:1), 24.000 fps, XviD build 67 ~1585 kbps avg, 0.24 bit/pixel
Аудио #1: 48 kHz, AC3 Dolby Digital, 2/0 (L,R) ch, ~192 kbps avg (RUS)
Аудио #2: 48 kHz, AC3 Dolby Digital, 2/0 (L,R) ch, ~192 kbps avg (ENG)
Общее
Полное имя                               : D:\Veronica_2017_HDRip_Line_by_Dalemake.avi
Формат                                   : AVI
Формат/Информация                        : Audio Video Interleave
Размер файла                             : 1,46 Гбайт
Продолжительность                        : 1 ч. 45 м.
Общий поток                              : 1984 Кбит/сек
Программа кодирования                    : VirtualDubMod 1.5.10.3 | www.virtualdub-fr.org || (build 2550/release)
Библиотека кодирования                   : VirtualDubMod build 2550/release

Видео
Идентификатор                            : 0
Формат                                   : MPEG-4 Visual
Профиль формата                          : Advanced [email protected]
Параметр BVOP формата                    : 1
Параметр QPel формата                    : Нет
Параметр GMC формата                     : Без точки перехода
Параметр матрицы формата                 : Выборочная
Идентификатор кодека                     : XVID
Идентификатор кодека/Подсказка           : XviD
Продолжительность                        : 1 ч. 45 м.
Битрейт                                  : 1586 Кбит/сек
Ширина                                   : 704 пикселя
Высота                                   : 384 пикселя
Соотношение сторон                       : 1,85:1
Частота кадров                           : 24,000 кадра/сек
Цветовое пространство                    : YUV
Субдискретизация насыщенности            : 4:2:0
Битовая глубина                          : 8 бит
Тип развёртки                            : Прогрессивная
Метод сжатия                             : С потерями
Бит/(Пиксели*Кадры)                      : 0.244
Размер потока                            : 1,17 Гбайт (80%)
Библиотека кодирования                   : XviD 67

Аудио #1
Идентификатор                            : 1
Формат                                   : AC-3
Формат/Информация                        : Audio Coding 3
Расширение режима                        : CM (complete main)
Параметр Endianness формата              : Big
Идентификатор кодека                     : 2000
Продолжительность                        : 1 ч. 45 м.
Вид битрейта                             : Постоянный
Битрейт                                  : 192 Кбит/сек
Каналы                                   : 2 канала
Расположение каналов                     : Front: L R
Частота                                  : 48,0 КГц
Метод сжатия                             : С потерями
Размер потока                            : 145 Мбайт (10%)
Выравнивание                             : Разделение по промежуткам
Продолжительность промежутка             : 42  мс. (1,00 видеокадр)
Время предзагрузки промежутка            : 500  мс.

Аудио #2
Идентификатор                            : 2
Формат                                   : AC-3
Формат/Информация                        : Audio Coding 3
Расширение режима                        : CM (complete main)
Параметр Endianness формата              : Big
Идентификатор кодека                     : 2000
Продолжительность                        : 1 ч. 45 м.
Вид битрейта                             : Постоянный
Битрейт                                  : 192 Кбит/сек
Каналы                                   : 2 канала
Расположение каналов                     : Front: L R
Частота                                  : 48,0 КГц
Метод сжатия                             : С потерями
Размер потока                            : 145 Мбайт (10%)
Выравнивание                             : Разделение по промежуткам
Продолжительность промежутка             : 42  мс. (1,00 видеокадр)
Время предзагрузки промежутка            : 500  мс.

При появлении перевода iTunes рип будет перезалит!


Трекер:  [ 16-Мар-2018 17:01 ]

  

Скачать .torrent

Размер .torrent файла 15 KB


Размер: 1.46 GB
Хэш (hash) релиза: 940397733923b10ef0ff04a9536633b820cda5b2

Еще никто не оставлял запись к записи скачать торрент Уиджи: Проклятие Вероники Verónica . Будь первым!

!Обратная связь