amar hiyar majha by sathi ghosh | Hulk und das Team S.M.A.S.H. | Кот в сапогах

Скачать через торрент Мозаика Mosaic Фильм бесплатно в хорошем качестве torrent

Скачивайте на UnionPeer.org фильмы через торрент без регистрации. Новинки кино в хорошем качестве через торрент. На UnionPeer.org можно скачать через торрент фильмы 2014 и 2015 годов. Самые новые фильмы.

Скачать торрент Мозаика Mosaic бесплатно через .torrent фильм мультфильм сериал

Статистика раздачи
Размер:  6.37 GB   |    Зарегистрирован:  3 месяца 20 дней   |    .torrent скачан:  48 раз   |   
Раздают:  1  
   
загрузка...
 
Автор Сообщение

Galfimbul

avatar Galfimbul


Мозаика / Mosaic

Год выпуска: 2018
Страна: США
Жанр: триллер, драма, криминал, детектив
Продолжительность: ~ 00:55:00

Перевод: Профессиональный многоголосый закадровый (AMS)

Режиссёр: Мерседес Морган

В ролях: Ellie Gall, Philip Alexander, Шван Аладдин, Daniel Rashid, Justin Michael Terry, Мишель Джубили Гонсалес, Aylam Orian, Коннор Триннир, Сара Навратил, Линкольн Хопп и другие

Описание:
В центре сюжета знаменитый автор и иллюстратор детской литературы Оливия Лейк, а также двое мужчин, которые вскоре сыграют важную роль в ее жизни.

/ Сэмпл

Качество: WEB-DL 720p
Контейнер: MKV

Видео: MPEG-4 AVC, 1280x720, 16:9, ~1800-4500 Кбит/с, 23.976 fps, ~0.083-0.180 bit/pixel
Аудио 1: Русский, AC3, 48.0 KHz, 2 channels, 192 Kbps
Аудио 2: Английский, AC3, 48.0 KHz, 2 channels, 192 Kbps
Субтитры: английские (Softsub SRT)

Реклама: Присутствует звуковая (два раза: в начале и конце по 12 сек)
General
Unique ID : 306824467028004430836683993038232123162 (0xE6D43E2CDBD0F2A5242CF3188FFA771A)
Complete name : /Mosaic.S01.720p.WEB-DL.AMS/Mosaic.S01E01.720p.WEB-DL.AMS.mkv
Format : Matroska
Format version : Version 4 / Version 2
File size : 1.05 GiB
Duration : 50mn 9s
Overall bit rate mode : Variable
Overall bit rate : 3 003 Kbps
Encoded date : UTC 2018-01-01 23:59:59
Writing application : mkvmerge v8.2.0 ('World of Adventure') 64bit
Writing library : libebml v1.3.1 + libmatroska v1.4.2

Video
ID : 1
Format : AVC
Format/Info : Advanced Video Codec
Format profile : [email protected]
Format settings, CABAC : Yes
Format settings, ReFrames : 5 frames
Codec ID : V_MPEG4/ISO/AVC
Duration : 50mn 9s
Bit rate mode : Variable
Bit rate : 1 721 Kbps
Maximum bit rate : 4 500 Kbps
Width : 1 280 pixels
Height : 720 pixels
Display aspect ratio : 16:9
Frame rate mode : Constant
Frame rate : 23.976 (24000/1001) fps
Color space : YUV
Chroma subsampling : 4:2:0
Bit depth : 8 bits
Scan type : Progressive
Bits/(Pixel*Frame) : 0.078
Stream size : 617 MiB (57%)
Language : English
Default : Yes
Forced : No
Color range : Limited
Color primaries : BT.709
Transfer characteristics : BT.709
Matrix coefficients : BT.709

Audio #1
ID : 2
Format : AC-3
Format/Info : Audio Coding 3
Mode extension : CM (complete main)
Format settings, Endianness : Big
Codec ID : A_AC3
Duration : 50mn 9s
Bit rate mode : Constant
Bit rate : 640 Kbps
Channel(s) : 6 channels
Channel positions : Front: L C R, Side: L R, LFE
Sampling rate : 48.0 KHz
Frame rate : 31.250 fps (1536 spf)
Compression mode : Lossy
Stream size : 230 MiB (21%)
Language : Russian
Default : Yes
Forced : No

Audio #2
ID : 3
Format : E-AC-3
Format/Info : Audio Coding 3
Format settings, Endianness : Big
Codec ID : A_EAC3
Duration : 50mn 9s
Bit rate mode : Constant
Bit rate : 640 Kbps
Channel(s) : 6 channels
Channel positions : Front: L C R, Side: L R, LFE
Sampling rate : 48.0 KHz
Frame rate : 187.500 fps (256 spf)
Compression mode : Lossy
Delay relative to video : 8ms
Stream size : 230 MiB (21%)
Language : English
Default : No
Forced : No

Text #1
ID : 4
Format : UTF-8
Codec ID : S_TEXT/UTF8
Codec ID/Info : UTF-8 Plain Text
Duration : 49mn 35s
Bit rate : 75 bps
Count of elements : 876
Stream size : 27.4 KiB (0%)
Language : English
Default : No
Forced : No

Text #2
ID : 5
Format : UTF-8
Codec ID : S_TEXT/UTF8
Codec ID/Info : UTF-8 Plain Text
Duration : 49mn 47s
Bit rate : 79 bps
Count of elements : 917
Stream size : 29.0 KiB (0%)
Title : SDH
Language : English
Default : No
Forced : No


Трекер:  [ 26-Мар-2018 10:33 ]

  

Скачать .torrent

Размер .torrent файла 64 KB


Размер: 6.37 GB
Хэш (hash) релиза: 212e3952f84e325469c9e9ee04bf0dafe96ee64e
Подписка на обновления:

Торренты, похожие на Мозаика Mosaic скачать торрент

Форум Название Автор Размер S L Добавлен
Зарубежные сериалы ·· Мозаика / Mosaic / Сезон: 1 / Серии: 1-6 из 6 (Стивен Содерберг / Steven Soderbergh) [2018, США, триллер, драма, криминал, детектив, WEB-DL 720p] MVO (Amedia) + Original + Sub (Rus, Eng) Galfimbul 60996992695.68 GB 0 0 1520538865

22:54

8-Мар-18

Зарубежные сериалы ·· Мозаика / Mosaic / Сезон: 1 / Серии: 1-6 из 6 (Стивен Содерберг) [2018, США, Триллер, драма, криминал, детектив, WEBRip 720p] MVO (Jaskier) + Original Galfimbul 62493078975.82 GB 0 0 1520436288

18:24

7-Мар-18

Зарубежные сериалы ·· Мозаика / Mosaic / Сезон: 1 / Серии: 1-6 из 6 (Стивен Содерберг) [2018, США, Триллер, драма, криминал, детектив, WEBRip 1080p] MVO (Jaskier) + Original Galfimbul 1460672325213.6 GB 0 0 1520436279

18:24

7-Мар-18

Зарубежные сериалы ·· Мозаика / Mosaic / Сезон: 1 / Серии: 1-6 из 6 (Стивен Содерберг) [2018, США, Триллер, драма, криминал, детектив, WEBRip] MVO (Jaskier) + Original Galfimbul 39774023683.7 GB 0 0 1520436177

18:22

7-Мар-18

Зарубежные сериалы ·· Мозаика / Mosaic / Сезон: 1 / Серии: 1-6 из 6 (Стивен Содерберг / Steven Soderbergh) [2018, США, триллер, драма, криминал, детектив, WEBRip 1080p] DVO (Alternative Production) + Original Galfimbul 1460676842413.6 GB 0 0 1519210467

13:54

21-Фев-18

Зарубежные сериалы ·· Мозаика / Mosaic / Сезон: 1 / Серии: 1-6 из 6 (Стивен Содерберг / Steven Soderbergh) [2018, США, триллер, драма, криминал, детектив, HDTVRip 1080p] MVO (Amedia) + Original Galfimbul 1400965133913.05 GB 0 0 1517327701

18:55

30-Янв-18

Зарубежные сериалы ·· Мозаика / Mosaic / Сезон: 1 / Серии: 1-4 из 6 (Стивен Содерберг) [2018, США, Драма, WEB-DLRip] MVO (Amedia) + Original Galfimbul 29274664962.73 GB 0 0 1516996451

22:54

26-Янв-18

Зарубежные сериалы ·· Мозаика / Mosaic / Сезон: 1 / Серии: 1 из 6 (Стивен Содерберг) [2018, США, драма, WEB-DLRip] DVO (Gears Media) + Original Galfimbul 574246350548 MB 0 0 1516942324

07:52

26-Янв-18

Зарубежные сериалы ·· Мозаика / Mosaic / Сезон: 1 / Серии: 1 из 6 (Стивен Содерберг) [2018, США, драма, WEB-DL 720p] DVO (Gears Media) + Original Galfimbul 1033201416985 MB 0 0 1516906519

21:55

25-Янв-18

bot

Раздача обновлена!
Перекачайте торрент-файл.

Хотите добавить комментарий к записи скачать торрент Мозаика Mosaic

!Обратная связь