1x769 Acacias 38 | Marvels Cloak and Dagger S01E01 WEB x264-TBS[ettv] 17 minutes | Watch Movie

Скачать через торрент Кайф с доставкой High Maintenance Фильм бесплатно в хорошем качестве torrent

Скачивайте на UnionPeer.org фильмы через торрент без регистрации. Новинки кино в хорошем качестве через торрент. На UnionPeer.org можно скачать через торрент фильмы 2014 и 2015 годов. Самые новые фильмы.

Скачать торрент Кайф с доставкой High Maintenance бесплатно через .torrent фильм мультфильм сериал

Статистика раздачи
Размер:  4.62 GB   |    Зарегистрирован:  4 месяца 3 дня   |    .torrent скачан:  35 раз   |   
Раздают:  1  
   
загрузка...
 
Автор Сообщение

Galfimbul

avatar Galfimbul


Кайф с доставкой / High Maintenance

Год выпуска: 2018
Страна: США
Жанр: Фантастика, боевик, приключения
Продолжительность: ~ 00:30:00

Перевод: Профессиональный многоголосый закадровый (AMS)

Режиссёр: Катя Бликфелд, Бен Синклер, Шака Кинг

В ролях: Бен Синклер, Яэль Стоун, Грета Ли, Кейт Лин Шейл, Ребекка Наоми Джонс, Исмениа Мендез, Абдулла «Кид» Саид, Клем Чунг, Кевин Мамбо, Артур Мейер и другие

Описание:
Дружелюбный барыга по прозвищу Парень каждый раз получает заказ от новых клиентов, которые страдают от всевозможных расстройств, и с радостью посвящают в них своего поставщика.

/ Сэмпл

Качество: WEB-DL 720p
Контейнер: MKV

Видео: MPEG-4 AVC, 1280x720, 16:9, ~2550-4500 Кбит/с, 23.976 fps, ~0.115-0.200 bit/pixel
Аудио 1: Русский, AC3, 48.0 KHz, 6 channels, 640 Kbps
Аудио 2: Английский, AC3, 48.0 KHz, 6 channels, 640 Kbps
Субтитры: английские (Softsub SRT)

Реклама: Присутствует звуковая (два раза: в начале и конце по 12 сек)
General
Unique ID : 46904220041083924644005235862688196078 (0x23496C97AF49CC34D89AEC6943AF65EE)
Complete name : /High.Maintenance.S02.720p.WEB-DL.AMS/High.Maintenance.S02E01.720p.WEB-DL.AMS.mkv
Format : Matroska
Format version : Version 4 / Version 2
File size : 742 MiB
Duration : 27mn 4s
Overall bit rate mode : Variable
Overall bit rate : 3 833 Kbps
Encoded date : UTC 2018-01-01 23:59:59
Writing application : mkvmerge v8.2.0 ('World of Adventure') 64bit
Writing library : libebml v1.3.1 + libmatroska v1.4.2

Video
ID : 1
Format : AVC
Format/Info : Advanced Video Codec
Format profile : [email protected]
Format settings, CABAC : Yes
Format settings, ReFrames : 5 frames
Codec ID : V_MPEG4/ISO/AVC
Duration : 27mn 4s
Bit rate mode : Variable
Bit rate : 2 550 Kbps
Maximum bit rate : 4 500 Kbps
Width : 1 280 pixels
Height : 720 pixels
Display aspect ratio : 16:9
Frame rate mode : Constant
Frame rate : 23.976 (24000/1001) fps
Color space : YUV
Chroma subsampling : 4:2:0
Bit depth : 8 bits
Scan type : Progressive
Bits/(Pixel*Frame) : 0.115
Stream size : 494 MiB (67%)
Language : English
Default : Yes
Forced : No
Color range : Limited
Color primaries : BT.709
Transfer characteristics : BT.709
Matrix coefficients : BT.709

Audio #1
ID : 2
Format : AC-3
Format/Info : Audio Coding 3
Mode extension : CM (complete main)
Format settings, Endianness : Big
Codec ID : A_AC3
Duration : 27mn 4s
Bit rate mode : Constant
Bit rate : 640 Kbps
Channel(s) : 6 channels
Channel positions : Front: L C R, Side: L R, LFE
Sampling rate : 48.0 KHz
Frame rate : 31.250 fps (1536 spf)
Compression mode : Lossy
Stream size : 124 MiB (17%)
Language : Russian
Default : Yes
Forced : No

Audio #2
ID : 3
Format : E-AC-3
Format/Info : Audio Coding 3
Format settings, Endianness : Big
Codec ID : A_EAC3
Duration : 27mn 4s
Bit rate mode : Constant
Bit rate : 640 Kbps
Channel(s) : 6 channels
Channel positions : Front: L C R, Side: L R, LFE
Sampling rate : 48.0 KHz
Frame rate : 187.500 fps (256 spf)
Compression mode : Lossy
Delay relative to video : 31ms
Stream size : 124 MiB (17%)
Language : English
Default : No
Forced : No

Text #1
ID : 4
Format : UTF-8
Codec ID : S_TEXT/UTF8
Codec ID/Info : UTF-8 Plain Text
Duration : 26mn 52s
Bit rate : 75 bps
Count of elements : 487
Stream size : 14.8 KiB (0%)
Language : English
Default : No
Forced : No

Text #2
ID : 5
Format : UTF-8
Codec ID : S_TEXT/UTF8
Codec ID/Info : UTF-8 Plain Text
Duration : 26mn 52s
Bit rate : 84 bps
Count of elements : 561
Stream size : 16.7 KiB (0%)
Title : SDH
Language : English
Default : No
Forced : No


Трекер:  [ 14-Мар-2018 10:18 ]

  

Скачать .torrent

Размер .torrent файла 47 KB


Размер: 4.62 GB
Хэш (hash) релиза: 8a65839fd4cca600346e854082f2598a573a56cb
Подписка на обновления:

Еще никто не оставлял запись к записи скачать торрент Кайф с доставкой High Maintenance . Будь первым!

!Обратная связь