Raise Data Recovery for FAT NTFS 5.2 Datecode 19.03.2012 | Style Birmingham March April 2012 | Angels with Dirty Faces HD

Скачать через торрент Звездные врата: Начало Stargate Origins Фильм бесплатно в хорошем качестве torrent

Скачивайте на UnionPeer.org фильмы через торрент без регистрации. Новинки кино в хорошем качестве через торрент. На UnionPeer.org можно скачать через торрент фильмы 2014 и 2015 годов. Самые новые фильмы.

Скачать торрент Звездные врата: Начало Stargate Origins бесплатно через .torrent фильм мультфильм сериал

Статистика раздачи
Размер:  1.61 GB   |    Зарегистрирован:  3 месяца 4 дня   |    .torrent скачан:  33 раза   |   
Раздают:  1  
   
загрузка...
 
Автор Сообщение

Galfimbul

avatar Galfimbul


Звездные врата: Начало / Stargate Origins

Год выпуска: 2018
Страна: США
Жанр: Фантастика, боевик, приключения
Продолжительность: ~ 00:10:00

Перевод: Профессиональный многоголосый закадровый (AMS)

Режиссёр: Мерседес Морган

В ролях: Ellie Gall, Philip Alexander, Шван Аладдин, Daniel Rashid, Justin Michael Terry, Мишель Джубили Гонсалес, Aylam Orian, Коннор Триннир, Сара Навратил, Линкольн Хопп и другие

Описание:
Главной действующей героиней приквела станет молодая Кэтрин Лэнгфорд, дочь профессора археологии Пола Лэнгфорда, которая в детстве помогла найти Звездные врата и в течение нескольких десятилетий пыталась выяснить, как заставить их работать. Кэтрин предстоит совершить неожиданное путешествие в целях разгадки тайны, лежащей за Звездными вратами, и спасения мира от невообразимого мрака.

/ Сэмпл

Качество: WEB-DL 720p
Контейнер: MKV

Видео: MPEG-4 AVC, 1280x640, 18:9, ~2056 Кбит/с, 23.976 fps, ~0.105 bit/pixel
Аудио 1: Русский, AC3, 48.0 KHz, 2 channels, 192 Kbps
Аудио 2: Английский, AC3, 48.0 KHz, 2 channels, 192 Kbps
Субтитры: английские (Softsub SRT)

Реклама: Присутствует звуковая (два раза: в начале и конце по 12 сек)
General
Unique ID : 131476958274113419070764953178444474615 (0x62E98A851DFDFF8F2362BD4FED3528F7)
Complete name : /Stargate.Origins.S01.720p.WEB-DL.AMS/Stargate.Origins.S01E01.720p.WEB-DL.AMS.mkv
Format : Matroska
Format version : Version 4 / Version 2
File size : 176 MiB
Duration : 10mn 6s
Overall bit rate : 2 442 Kbps
Encoded date : UTC 2018-01-01 23:59:59
Writing application : mkvmerge v8.2.0 ('World of Adventure') 64bit
Writing library : libebml v1.3.1 + libmatroska v1.4.2

Video
ID : 1
Format : AVC
Format/Info : Advanced Video Codec
Format profile : [email protected]
Format settings, CABAC : No
Format settings, ReFrames : 1 frame
Codec ID : V_MPEG4/ISO/AVC
Duration : 10mn 5s
Bit rate mode : Constant
Bit rate : 2 056 Kbps
Nominal bit rate : 2 200 Kbps
Width : 1 280 pixels
Height : 640 pixels
Display aspect ratio : 2.000
Frame rate mode : Constant
Frame rate : 23.976 (24000/1001) fps
Standard : NTSC
Color space : YUV
Chroma subsampling : 4:2:0
Bit depth : 8 bits
Scan type : Progressive
Bits/(Pixel*Frame) : 0.105
Stream size : 148 MiB (84%)
Language : English
Default : Yes
Forced : No
Color range : Limited
Color primaries : BT.709
Transfer characteristics : BT.709
Matrix coefficients : BT.709

Audio #1
ID : 2
Format : AC-3
Format/Info : Audio Coding 3
Mode extension : CM (complete main)
Format settings, Endianness : Big
Codec ID : A_AC3
Duration : 10mn 6s
Bit rate mode : Constant
Bit rate : 192 Kbps
Channel(s) : 2 channels
Channel positions : Front: L R
Sampling rate : 48.0 KHz
Frame rate : 31.250 fps (1536 spf)
Compression mode : Lossy
Delay relative to video : -36ms
Stream size : 13.9 MiB (8%)
Language : Russian
Default : Yes
Forced : No

Audio #2
ID : 3
Format : AC-3
Format/Info : Audio Coding 3
Mode extension : CM (complete main)
Format settings, Endianness : Big
Codec ID : A_AC3
Duration : 10mn 6s
Bit rate mode : Constant
Bit rate : 192 Kbps
Channel(s) : 2 channels
Channel positions : Front: L R
Sampling rate : 48.0 KHz
Frame rate : 31.250 fps (1536 spf)
Compression mode : Lossy
Delay relative to video : -36ms
Stream size : 13.9 MiB (8%)
Language : English
Default : No
Forced : No

Text
ID : 4
Format : UTF-8
Codec ID : S_TEXT/UTF8
Codec ID/Info : UTF-8 Plain Text
Duration : 9mn 20s
Bit rate : 71 bps
Count of elements : 169
Stream size : 4.92 KiB (0%)
Language : English
Default : No
Forced : No


Трекер:  [ 14-Мар-2018 09:48 ]

  

Скачать .torrent

Размер .torrent файла 17 KB


Размер: 1.61 GB
Хэш (hash) релиза: 59f2af04d3e261bb7cb07ef6f70bdd02cc320698
Подписка на обновления:

Еще никто не оставлял запись к записи скачать торрент Звездные врата: Начало Stargate Origins . Будь первым!

!Обратная связь