Black-ish | Ce2 Les Notions Fondamentales Du Programme | Atelier Escha Logy: Alchemists of the Dusk Sky

Скачать через торрент Волшебники The Magicians Фильм бесплатно в хорошем качестве torrent

Скачивайте на UnionPeer.org фильмы через торрент без регистрации. Новинки кино в хорошем качестве через торрент. На UnionPeer.org можно скачать через торрент фильмы 2014 и 2015 годов. Самые новые фильмы.

Скачать торрент Волшебники The Magicians бесплатно через .torrent фильм мультфильм сериал

Статистика раздачи
Размер:  9.79 GB   |    Зарегистрирован:  4 месяца 3 дня   |    .torrent скачан:  34 раза   |   
Раздают:  1  
   
загрузка...
 
Автор Сообщение

Galfimbul

avatar Galfimbul


Волшебники / The Magicians

Год выпуска: 2018
Страна: США
Жанр: Фэнтези, драма
Продолжительность: ~ 00:45:00

Перевод: Профессиональный многоголосый закадровый (AMS)

Режиссёр: Крис Фишер, Джеймс Л. Конуэй, Джошуа Батлер

В ролях: Джейсон Ральф, Стелла Маив, Хейл Эйплмен, Арджун Гупта, Саммер Бишил, Оливия Тейлор Дадли, Джейд Тейлор, Бриттани Каррен, Рик Уорси, Ризван Манжи и другие

Описание:
Молодые люди слегка за двадцать изучают в современном Нью-Йорке магию и обнаруживают, что волшебный мир, о котором они читали в детстве, не только реален, но ещё и очень опасен.

/ Сэмпл

Качество: WEB-DL 720p
Контейнер: MKV

Видео: MPEG-4 AVC, 1280x720, 16:9, ~2350-4500 Кбит/с, 23.976 fps, ~0.106-0.200 bit/pixel
Аудио 1: Русский, AC3, 48.0 KHz, 6 channels, 640 Kbps
Аудио 2: Английский, AC3, 48.0 KHz, 6 channels, 640 Kbps
Субтитры: английские (Softsub SRT)

Реклама: Присутствует звуковая (два раза: в начале и конце по 12 сек)
General
Unique ID : 110338574525419211659510492751027513138 (0x53026FBC7EA4288B4BCC9227FCB42732)
Complete name : /The.Magicians.S03.720p.WEB-DL.AMS/The.Magicians.S03E01.720p.WEB-DL.AMS.mkv
Format : Matroska
Format version : Version 4 / Version 2
File size : 1.17 GiB
Duration : 46mn 11s
Overall bit rate mode : Variable
Overall bit rate : 3 633 Kbps
Encoded date : UTC 2018-01-01 23:59:59
Writing application : mkvmerge v8.2.0 ('World of Adventure') 64bit
Writing library : libebml v1.3.1 + libmatroska v1.4.2

Video
ID : 1
Format : AVC
Format/Info : Advanced Video Codec
Format profile : [email protected]
Format settings, CABAC : Yes
Format settings, ReFrames : 5 frames
Codec ID : V_MPEG4/ISO/AVC
Duration : 46mn 11s
Bit rate mode : Variable
Bit rate : 2 350 Kbps
Maximum bit rate : 4 500 Kbps
Width : 1 280 pixels
Height : 720 pixels
Display aspect ratio : 16:9
Frame rate mode : Constant
Frame rate : 23.976 (24000/1001) fps
Color space : YUV
Chroma subsampling : 4:2:0
Bit depth : 8 bits
Scan type : Progressive
Bits/(Pixel*Frame) : 0.106
Stream size : 776 MiB (65%)
Language : English
Default : Yes
Forced : No
Color range : Limited
Color primaries : BT.709
Transfer characteristics : BT.709
Matrix coefficients : BT.709

Audio #1
ID : 2
Format : AC-3
Format/Info : Audio Coding 3
Mode extension : CM (complete main)
Format settings, Endianness : Big
Codec ID : A_AC3
Duration : 46mn 11s
Bit rate mode : Constant
Bit rate : 640 Kbps
Channel(s) : 6 channels
Channel positions : Front: L C R, Side: L R, LFE
Sampling rate : 48.0 KHz
Frame rate : 31.250 fps (1536 spf)
Compression mode : Lossy
Stream size : 211 MiB (18%)
Language : Russian
Default : Yes
Forced : No

Audio #2
ID : 3
Format : E-AC-3
Format/Info : Audio Coding 3
Format settings, Endianness : Big
Codec ID : A_EAC3
Duration : 46mn 11s
Bit rate mode : Constant
Bit rate : 640 Kbps
Channel(s) : 6 channels
Channel positions : Front: L C R, Side: L R, LFE
Sampling rate : 48.0 KHz
Frame rate : 187.500 fps (256 spf)
Compression mode : Lossy
Stream size : 211 MiB (18%)
Language : English
Default : No
Forced : No

Text #1
ID : 4
Format : UTF-8
Codec ID : S_TEXT/UTF8
Codec ID/Info : UTF-8 Plain Text
Duration : 46mn 0s
Bit rate : 71 bps
Count of elements : 966
Stream size : 24.2 KiB (0%)
Language : English
Default : No
Forced : No

Text #2
ID : 5
Format : UTF-8
Codec ID : S_TEXT/UTF8
Codec ID/Info : UTF-8 Plain Text
Duration : 46mn 0s
Bit rate : 78 bps
Count of elements : 1073
Stream size : 26.5 KiB (0%)
Title : SDH
Language : English
Default : No
Forced : No


Трекер:  [ 14-Мар-2018 08:48 ]

  

Скачать .torrent

Размер .torrent файла 99 KB


Размер: 9.79 GB
Хэш (hash) релиза: e9c02575dba898aec53be39b4a61f6a41ffc7a37
Подписка на обновления:

Еще никто не оставлял запись к записи скачать торрент Волшебники The Magicians . Будь первым!

!Обратная связь