Watch Series | Lara Croft: Tomb Raider | Ciara - Sorry.

Скачать через торрент Двойник Counterpart Фильм бесплатно в хорошем качестве torrent

Скачивайте на UnionPeer.org фильмы через торрент без регистрации. Новинки кино в хорошем качестве через торрент. На UnionPeer.org можно скачать через торрент фильмы 2014 и 2015 годов. Самые новые фильмы.

Скачать торрент Двойник Counterpart бесплатно через .torrent фильм мультфильм сериал

Статистика раздачи
Размер:  8.72 GB   |    Зарегистрирован:  3 месяца 4 дня   |    .torrent скачан:  50 раз   |   
Раздают:  1  
   
загрузка...
 
Автор Сообщение

Galfimbul

avatar Galfimbul


Двойник / Counterpart

Год выпуска: 2018
Страна: США
Жанр: Фантастика, триллер, драма
Продолжительность: ~ 00:55:00

Перевод: Профессиональный многоголосый закадровый (AMS)

Режиссёр: Алик Сахаров, Стивен Уильямс, Мортен Тильдум

В ролях: Дж.К. Симмонс, Гарри Ллойд, Назанин Бониади, Сара Серайокко, Оливия Уильямс, Николас Пиннок, Ульрих Томсен, Мидо Хамада, Кеннет Чои, Лотта Вербек и другие

Описание:
Говард Силке, незначительный винтик в бюрократической системе, обнаруживает, что агентство, в котором он работает, на самом деле занимается охраной переходов в параллельное измерение.

/ Сэмпл

Качество: WEB-DL 720p
Контейнер: MKV

Видео: MPEG-4 AVC, 1280x720, 16:9, ~2000-4500 Кбит/с, 23.976 fps, ~0.099-0.200 bit/pixel
Аудио 1: Русский, AC3, 48.0 KHz, 6 channels, 640 Kbps
Аудио 2: Английский, AC3, 48.0 KHz, 6 channels, 640 Kbps
Субтитры: английские (Softsub SRT)

Реклама: Присутствует звуковая (два раза: в начале и конце по 12 сек)
General
Unique ID : 45952600573286710853907325701656179927 (0x229226215E37E984F3CB492274C074D7)
Complete name : /Counterpart.S01.720p.WEB-DL.AMS/Counterpart.S01E01.720p.WEB-DL.AMS.mkv
Format : Matroska
Format version : Version 4 / Version 2
File size : 1.27 GiB
Duration : 57mn 10s
Overall bit rate mode : Variable
Overall bit rate : 3 179 Kbps
Encoded date : UTC 2018-01-01 23:59:59
Writing application : mkvmerge v8.2.0 ('World of Adventure') 64bit
Writing library : libebml v1.3.1 + libmatroska v1.4.2

Video
ID : 1
Format : AVC
Format/Info : Advanced Video Codec
Format profile : [email protected]
Format settings, CABAC : Yes
Format settings, ReFrames : 5 frames
Codec ID : V_MPEG4/ISO/AVC
Duration : 57mn 10s
Bit rate mode : Variable
Bit rate : 1 897 Kbps
Maximum bit rate : 4 500 Kbps
Width : 1 280 pixels
Height : 720 pixels
Display aspect ratio : 16:9
Frame rate mode : Constant
Frame rate : 23.976 (24000/1001) fps
Color space : YUV
Chroma subsampling : 4:2:0
Bit depth : 8 bits
Scan type : Progressive
Bits/(Pixel*Frame) : 0.086
Stream size : 776 MiB (60%)
Language : English
Default : Yes
Forced : No
Color range : Limited
Color primaries : BT.709
Transfer characteristics : BT.709
Matrix coefficients : BT.709

Audio #1
ID : 2
Format : AC-3
Format/Info : Audio Coding 3
Mode extension : CM (complete main)
Format settings, Endianness : Big
Codec ID : A_AC3
Duration : 57mn 10s
Bit rate mode : Constant
Bit rate : 640 Kbps
Channel(s) : 6 channels
Channel positions : Front: L C R, Side: L R, LFE
Sampling rate : 48.0 KHz
Frame rate : 31.250 fps (1536 spf)
Compression mode : Lossy
Stream size : 262 MiB (20%)
Language : Russian
Default : Yes
Forced : No

Audio #2
ID : 3
Format : E-AC-3
Format/Info : Audio Coding 3
Format settings, Endianness : Big
Codec ID : A_EAC3
Duration : 57mn 10s
Bit rate mode : Constant
Bit rate : 640 Kbps
Channel(s) : 6 channels
Channel positions : Front: L C R, Side: L R, LFE
Sampling rate : 48.0 KHz
Frame rate : 187.500 fps (256 spf)
Compression mode : Lossy
Stream size : 262 MiB (20%)
Language : English
Default : No
Forced : No

Text
ID : 4
Format : UTF-8
Codec ID : S_TEXT/UTF8
Codec ID/Info : UTF-8 Plain Text
Duration : 55mn 20s
Bit rate : 49 bps
Count of elements : 761
Stream size : 20.2 KiB (0%)
Language : English
Default : No
Forced : No


Трекер:  [ 14-Мар-2018 08:48 ]

  

Скачать .torrent

Размер .torrent файла 88 KB


Размер: 8.72 GB
Хэш (hash) релиза: ffd8520f8814688863f9ebb2cf2a3f1fa9275c89
Подписка на обновления:

Еще никто не оставлял запись к записи скачать торрент Двойник Counterpart . Будь первым!

!Обратная связь