Free Magazines Downloads/Subscription | Gringo (2018) | Nero Wolfe

Скачать через торрент Харроу Harrow Фильм бесплатно в хорошем качестве torrent

Скачивайте на UnionPeer.org фильмы через торрент без регистрации. Новинки кино в хорошем качестве через торрент. На UnionPeer.org можно скачать через торрент фильмы 2014 и 2015 годов. Самые новые фильмы.

Скачать торрент Харроу Harrow бесплатно через .torrent фильм мультфильм сериал

Статистика раздачи
Размер:  613 MB   |    Зарегистрирован:  4 месяца 4 дня   |    .torrent скачан:  40 раз   |   
Раздают:  1  
   
загрузка...
 
Автор Сообщение

Galfimbul

avatar Galfimbul



Харроу / Harrow
1 сезон, 1-1 серии из 10
Год выпуска: 2018
Страна: США, Австралия
Жанр: драма
Продолжительность: ~40 мин
Озвучание: профессиональное, многоголосое, закадровое (AlexFilm)
Режиссеры: Тони Кравиц, Питер Сэлмон, Кейт Дэннис

В ролях: Йоан Гриффит, Мирра Фолкс, Дэмиен Гарви, Реми Хий, Робин Малкольм, Элла Ньютон, Анна Лизе Филлипс, Патрис Кокс, Мартиниа О’Салливан, Пари Парандуш и др.
Описание: Сериал расскажет историю судебного патологоанатома доктора Даниэля Харроу, специалиста по решению запутанных дел об убийствах, готового нарушить любые правила, чтобы дать своим жертвам шанс "высказаться" и изобличить своего убийцу. Однако, когда некая страшная тайна из прошлого Даниэля грозит разрушить его семью, карьеру и даже угрожает его собственной жизни, главному герою приходится применить все свои уникальные навыки чтобы одно преступление так и осталось не раскрытым.
Релиз:

Перевод: Дияна Младенович
Монтаж и сведение звука: Михаил Шорыгин
Роли озвучивали:
<div style="margin-left: 2em" class="post-ul">

Маргарита Корш
Екатерина Муравицкая
Кирилл Патрино
Константин Федосеев
Александр Матвеев
Михаил Федосеев

</div>
Сэмпл: http://sendfile.su/1405781

Качество: HDTVRip
Формат: AVI
Видео: 720x400 (16:9), 25 fps, XviD ~1400 kbps avg, 0.195 bit/pixel
Аудио Rus: 48 kHz, MPEG Layer 3, 2 ch, ~128.00 kbps avg
Аудио Eng: 48 kHz, MPEG Layer 3, 2 ch, ~128.00 kbps avg
Субтитры: нет
Реклама: Реклама: аудио (два раза, в начале 10 и в конце 10 сек.)
Формат : AVI
Формат/Информация : Audio Video Interleave
Размер файла : 613 Мбайт
Продолжительность : 52 м. 6 с.
Общий поток : 1645 Кбит/сек
Название фильма : Harrow 1x01 @ AlexFilm
Программа кодирования : VirtualDubMod 1.5.10.2 (build 2540/release)
Библиотека кодирования : VirtualDubMod build 2540/release

Видео
Идентификатор : 0
Формат : MPEG-4 Visual
Профиль формата : Advanced [email protected]
Параметр BVOP формата : Нет
Параметр QPel формата : Нет
Параметр GMC формата : Без точки перехода
Параметр матрицы формата : Default (MPEG)
Идентификатор кодека : XVID
Идентификатор кодека/Подсказка : XviD
Продолжительность : 52 м. 6 с.
Битрейт : 1375 Кбит/сек
Ширина : 720 пикселей
Высота : 400 пикселей
Соотношение сторон : 16:9
Частота кадров : 25,000 кадров/сек
Цветовое пространство : YUV
Субдискретизация насыщенности : 4:2:0
Битовая глубина : 8 бит
Тип развёртки : Прогрессивная
Метод сжатия : С потерями
Бит/(Пиксели*Кадры) : 0.191
Размер потока : 512 Мбайт (84%)
Библиотека кодирования : XviD 73

Аудио #1
Идентификатор : 1
Формат : MPEG Audio
Версия формата : Version 1
Профиль формата : Layer 3
Режим : Joint stereo
Идентификатор кодека : 55
Идентификатор кодека/Подсказка : MP3
Продолжительность : 52 м. 6 с.
Вид битрейта : Постоянный
Битрейт : 128 Кбит/сек
Каналы : 2 канала
Частота : 48,0 КГц
Метод сжатия : С потерями
Размер потока : 47,7 Мбайт (8%)
Выравнивание : Соединение по промежуткам
Продолжительность промежутка : 40 мс. (1,00 видеокадр)
Время предзагрузки промежутка : 504 мс.
Заголовок : Russian (AlexFilm)

Аудио #2
Идентификатор : 2
Формат : MPEG Audio
Версия формата : Version 1
Профиль формата : Layer 3
Режим : Joint stereo
Расширение режима : MS Stereo
Идентификатор кодека : 55
Идентификатор кодека/Подсказка : MP3
Продолжительность : 52 м. 6 с.
Вид битрейта : Постоянный
Битрейт : 128 Кбит/сек
Каналы : 2 канала
Частота : 48,0 КГц
Метод сжатия : С потерями
Размер потока : 47,7 Мбайт (8%)
Выравнивание : Соединение по промежуткам
Продолжительность промежутка : 40 мс. (1,00 видеокадр)
Время предзагрузки промежутка : 504 мс.
Заголовок : English
Библиотека кодирования : LAME3.90.3ЄЄЄЄЄЄЄЄЄЄ
Внимание! Раздача ведётся путём добавления новых серий; при каждом добавлении создаётся новый торрент. Чтобы начать докачку новой серии, пользователям необходимо сделать следующее:
(1) остановить скачивание,
(2) удалить старый торрент у себя из клиента (старые серии удалять не надо),
(3) скачать новый торрент и запустить его у себя в клиенте вместо старого, при этом указать клиенту путь в старую папку куда и должно происходить скачивание новых серий.
Ваш клиент при этом должен произвести хеширование (проверку) старой папки (если не производит сам - помогите ему сделать это), и будет докачивать только те серии которых у вас ещё нет. Старые серии при этом не удаляются, а продолжают раздаваться!
Eсли вы уже удалили старые серии, то предотвратить повторную закачку старых серий можно, отжав галочку в соответствующих местах при запуске нового торрента. По возможности, желательно не удалять старые серии как можно дольше чтобы релизёр не столько продолжал раздавать старые серии, а смог сконцентрироваться на новых.

Ссылка на предыдущие и альтернативные раздачи


Трекер:  [ 14-Мар-2018 05:48 ]

  

Скачать .torrent

Размер .torrent файла 12 KB


Размер: 613 MB
Хэш (hash) релиза: 5248b3c68422fc8bf09558cb7ba2f9a486ed48ad
Подписка на обновления:

Еще никто не оставлял запись к записи скачать торрент Харроу Harrow . Будь первым!

!Обратная связь