Ali's Wedding | Turn Over | [Linux Game,Головоломка] SpaceChem [ENG] Подробнее... Залито: 16-04-2011 08:22 (2983 просмотра) [Linux Game,Головоломка] SpaceChem [ENG] Игры для других платформ Головоломка, весьма подробно и наглядно использующая принципы химического взаимодействия веществ. От игрока требуется построить определённые логические цепи для преобразования простых веществ в более сложные и ценные - всё на благо развивающихся космических колоний. В игре более 50 уровней, оригинальный... Раздают: 0 Качают: 0 Размер: 77MB

Скачать через торрент Хитрость Обман Фильм бесплатно в хорошем качестве torrent

Скачивайте на UnionPeer.org фильмы через торрент без регистрации. Новинки кино в хорошем качестве через торрент. На UnionPeer.org можно скачать через торрент фильмы 2014 и 2015 годов. Самые новые фильмы.

Скачать торрент Хитрость Обман бесплатно через .torrent фильм мультфильм сериал

Статистика раздачи
Размер:  550 MB   |    Зарегистрирован:  4 месяца 4 дня   |    .torrent скачан:  44 раза   |   
Раздают:  1  
   
загрузка...
 
Автор Сообщение

Galfimbul

avatar Galfimbul


Хитрость | Обман
Deception
Год выпуска: 2018
Страна: США
Жанр: Драма
Продолжительность: ~ 00:45:00
Перевод: Профессиональный (многоголосый закадровый) Студия «Profix Media»
Режиссёр: Дэвид Наттер, Роб Шейденгланц, Сильвер Три
В ролях: Лайла Робинс, Роберт Рид Мерфи, Рубен Наварро, Амори Ноласко, Ильфенеш Хадера, Джастин Чон, Ленора Кричлоу, Джо Кэрролл, Дэнни Корбо, Сонни Корбо
Описание: Талантливого иллюзиониста Кэмерона Блэка обожают зрители, приходящие в восторг от его трюков и способностей. Простейшие действия помогают мужчине создавать интересные миражи, параллельные реальности, которые приводят в восторг миллионы людей, готовых и дальше верить в сказку. Кэмерон становится обладателем титула «Величайший мистификатор человечества», что заставляет его дальше усовершенствовать собственные навыки и способности. Нелепая ошибка приводит к серьезным неприятностям, мужчине приходится поменять сферу деятельности, но он не теряет надежду, что сможет найти тех, кто организовал против него заговор.Сейчас он работает в полиции, имея доступ к секретным данным на всех тех, кто мог бы быть его врагом или недоброжелателем. Остается понять, как грамотно использовать полученные сведения. Работой Кэмерона довольны в агентстве, ведь он мастерски раскрывает сложнейшие преступления, отправляя виновных за решетку. Нарушителям закона от него не спрятаться, но мужчина не теряет надежды реабилитироваться перед обществом и вернуть себе честное имя. Вскоре становится понятно, что в заговоре замешаны представители мафиозных группировок, но что потребоваться серьезным мужчинам от обычного иллюзиониста? Для чего они способствовали разрушению его карьеры?
Доп. информация: Без рекламных ВидеоАудио вставок
Всем нетерпеливым, канал на отдачу маленький.
Ныть где сид, поддайте скорости не нужно. Не нравится - идите мимо, найдите Альтернативные раздачи, без негативных комментариев здесь.

Сэмпл
Качество: WEBRip
Формат: AVI
Видео: XviD, 720x400 (16:9), 23,976 fps, ~1500 kbps
Аудио: Rus. MP3, 48 kHz, 2 ch, 128 kbps
Аудио: Eng. MP3, 48 kHz, 2 ch, 128 kbps
Субтитры: отсутствуют
Реклама: отсутствует
Полное имя                               : Deception.S01.WEBRip.RusEng.Profix.Media\Deception.S01E01.WEBRip.RusEng.Profix.Media.L.avi
Формат                                   : AVI
Формат/Информация                        : Audio Video Interleave
Размер файла                             : 550 Мбайт
Продолжительность                        : 43 м. 5 с.
Общий поток                              : 1785 Кбит/сек
Программа кодирования                    : VirtualDubMod 1.5.10.3 (build 2550/release)
Библиотека кодирования                   : VirtualDubMod build 2550/release

Видео
Идентификатор                            : 0
Формат                                   : MPEG-4 Visual
Профиль формата                          : Advanced [email protected]
Настройки формата                        : BVOP1
Параметр BVOP формата                    : 1
Параметр QPel формата                    : Нет
Параметр GMC формата                     : Без точки перехода
Параметр матрицы формата                 : Default (H.263)
Идентификатор кодека                     : XVID
Идентификатор кодека/Подсказка           : XviD
Продолжительность                        : 43 м. 5 с.
Битрейт                                  : 1515 Кбит/сек
Ширина                                   : 720 пикселей
Высота                                   : 400 пикселей
Соотношение сторон                       : 16:9
Частота кадров                           : 23,976 (24000/1001) кадра/сек
Цветовое пространство                    : YUV
Субдискретизация насыщенности            : 4:2:0
Битовая глубина                          : 8 бит
Тип развёртки                            : Прогрессивная
Метод сжатия                             : С потерями
Бит/(Пиксели*Кадры)                      : 0.219
Размер потока                            : 467 Мбайт (85%)
Библиотека кодирования                   : XviD 1.2.1 (UTC 2008-12-04)

Аудио #1
Идентификатор                            : 1
Формат                                   : MPEG Audio
Версия формата                           : Version 1
Профиль формата                          : Layer 3
Настройки формата                        : Joint stereo / MS Stereo
Режим                                    : Joint stereo
Расширение режима                        : MS Stereo
Идентификатор кодека                     : 55
Идентификатор кодека/Подсказка           : MP3
Продолжительность                        : 43 м. 5 с.
Вид битрейта                             : Постоянный
Битрейт                                  : 128 Кбит/сек
Каналы                                   : 2 канала
Частота                                  : 48,0 КГц
Метод сжатия                             : С потерями
Размер потока                            : 39,5 Мбайт (7%)
Выравнивание                             : Соединение по промежуткам
Продолжительность промежутка             : 42  мс. (1,00 видеокадр)
Время предзагрузки промежутка            : 504  мс.

Аудио #2
Идентификатор                            : 2
Формат                                   : MPEG Audio
Версия формата                           : Version 1
Профиль формата                          : Layer 3
Настройки формата                        : Joint stereo / MS Stereo
Режим                                    : Joint stereo
Расширение режима                        : MS Stereo
Идентификатор кодека                     : 55
Идентификатор кодека/Подсказка           : MP3
Продолжительность                        : 43 м. 5 с.
Вид битрейта                             : Постоянный
Битрейт                                  : 128 Кбит/сек
Каналы                                   : 2 канала
Частота                                  : 48,0 КГц
Метод сжатия                             : С потерями
Размер потока                            : 39,5 Мбайт (7%)
Выравнивание                             : Соединение по промежуткам
Продолжительность промежутка             : 42  мс. (1,00 видеокадр)
Время предзагрузки промежутка            : 504  мс.
Внимание! Раздача ведётся путём добавления новых серий; при каждом добавлении создаётся новый торрент. Чтобы начать докачку новой серии, пользователям необходимо сделать следующее:
(1) остановить скачивание,
(2) удалить старый торрент у себя из клиента (старые серии удалять не надо),
(3) скачать новый торрент и запустить его у себя в клиенте вместо старого, при этом указать клиенту путь в старую папку куда и должно происходить скачивание новых серий.

Ваш клиент при этом должен произвести хеширование (проверку) старой папки (если не производит сам - помогите ему сделать это), и будет докачивать только те серии которых у вас ещё нет. Старые серии при этом не удаляются, а продолжают раздаваться!

Eсли вы уже удалили старые серии, то предотвратить повторную закачку старых серий можно, отжав галочку в соответствующих местах при запуске нового торрента. По возможности, желательно не удалять старые серии как можно дольше чтобы релизёр не столько продолжал раздавать старые серии, а смог сконцентрироваться на новых.


Трекер:  [ 14-Мар-2018 00:48 ]

  

Скачать .torrent

Размер .torrent файла 11 KB


Размер: 550 MB
Хэш (hash) релиза: 91430076d856ce9a4cc3080f1a3af44d80f7fafa
Подписка на обновления:

Еще никто не оставлял запись к записи скачать торрент Хитрость Обман . Будь первым!

!Обратная связь