El sacrificio de un ciervo sagrado | Star Trek Discovery S01E07 Magic to Make The Sanest Man Go Mad 1080p NF WEBRip DD5 1 x264 NTb rarbg | OpenLoad

Скачать через торрент Джентльмены и гангстеры Gentlemen & Gangsters Фильм бесплатно в хорошем качестве torrent

Скачивайте на UnionPeer.org фильмы через торрент без регистрации. Новинки кино в хорошем качестве через торрент. На UnionPeer.org можно скачать через торрент фильмы 2014 и 2015 годов. Самые новые фильмы.

Скачать торрент Джентльмены и гангстеры Gentlemen & Gangsters бесплатно через .torrent фильм мультфильм сериал

Статистика раздачи
Размер:  6.51 GB   |    Зарегистрирован:  4 месяца 4 дня   |    .torrent скачан:  40 раз   |   
Раздают:  1  
   
загрузка...
 
Автор Сообщение

Galfimbul

avatar Galfimbul


Джентльмены и гангстеры / Gentlemen & Gangsters

Год выпуска: 2016
Страна: Швеция
Жанр: Драма, романтика, триллер
Продолжительность: 90 мин

Перевод: Субтитры Ali+sher

Режиссёр: Микаэль Марсимаин / Mikael Marcimain

В ролях: Давид Денсик, Сверрир Гуднасон, Давид Фукамачи Регнфорс, Рут Вега Фернандез, Свен Нурдин.
Описание: Боксер и пианист Генри Морган живет в необычной квартире на улице Хурнсгатан в Стокгольме. С ним живет и брат Лео, бывший вундеркинд, философ и поэт-шестидесятник - ныне опустившийся тип. В доме происходит множество странных событий. Братья Морган, поистине, загадочные персонажи. Во всяком случае, по мнению писателя Класа Эстергрена, который появляется в удивительной квартире летом 1978 года, после того, как у него украли все, печатной машинки. Поселившись в одной из комнат квартиры братьев Морган, Клас оказывается втянут в душераздирающую драму.
Сэмпл: http://sendfile.su/1405752

Качество: DVDRip
Формат: MP4
Видео: AVC at 2500 Кбит/сек 1280 x 720 (1.778) at 25.000 fps
Аудио: AAC at 99,3 Кбит/сек 2 канала, 48,0 КГц
Субтитры: Русские, встроенные
Формат : MPEG-4
Профиль формата : Base Media
Идентификатор кодека : isom (isom/iso2/avc1/mp41)
Размер файла : 1,60 Гбайт
Продолжительность : 1 ч. 28 м.
Режим общего битрейта : Постоянный
Общий поток : 2600 Кбит/сек
Программа кодирования : Lavf57.71.100

Видео
Идентификатор : 1
Формат : AVC
Формат/Информация : Advanced Video Codec
Профиль формата : [email protected]
Настройки формата : CABAC / 3 Ref Frames
Параметр CABAC формата : Да
Параметр RefFrames формата : 3 кадра
Параметр GOP формата : M=1, N=25
Идентификатор кодека : avc1
Идентификатор кодека/Информация : Advanced Video Coding
Продолжительность : 1 ч. 28 м.
Вид битрейта : Постоянный
Битрейт : 2500 Кбит/сек
Ширина : 1280 пикселей
Высота : 720 пикселей
Соотношение сторон : 16:9
Режим частоты кадров : Постоянный
Частота кадров : 25,000 кадров/сек
Цветовое пространство : YUV
Субдискретизация насыщенности : 4:2:0
Битовая глубина : 8 бит
Тип развёртки : Прогрессивная
Бит/(Пиксели*Кадры) : 0.109
Размер потока : 1,54 Гбайт (96%)

Аудио
Идентификатор : 2
Формат : AAC
Формат/Информация : Advanced Audio Codec
Профиль формата : LC
Идентификатор кодека : mp4a-40-2
Продолжительность : 1 ч. 28 м.
Вид битрейта : Постоянный
Битрейт : 99,3 Кбит/сек
Каналы : 2 канала
Расположение каналов : Front: L R
Частота : 48,0 КГц
Частота кадров : 46,875 кадров/сек (1024 SPF)
Метод сжатия : С потерями
Размер потока : 62,7 Мбайт (4%)
Default : Да
AlternateGroup/String : 1
Предыдущие и альтернативные раздачи

Трекер:  [ 14-Мар-2018 00:18 ]

  

Скачать .torrent

Размер .torrent файла 17 KB


Размер: 6.51 GB
Хэш (hash) релиза: 6b31b2acd40631dd1f2e5b0a2304b539e5d9822e
Подписка на обновления:

Еще никто не оставлял запись к записи скачать торрент Джентльмены и гангстеры Gentlemen & Gangsters . Будь первым!

!Обратная связь