dynamodb | Anime - Sub | Oh My Grad

Скачать через торрент Хорошая борьба The Good Fight Фильм бесплатно в хорошем качестве torrent

Скачивайте на UnionPeer.org фильмы через торрент без регистрации. Новинки кино в хорошем качестве через торрент. На UnionPeer.org можно скачать через торрент фильмы 2014 и 2015 годов. Самые новые фильмы.

Скачать торрент Хорошая борьба The Good Fight бесплатно через .torrent фильм мультфильм сериал

Статистика раздачи
Размер:  1.77 GB   |    Зарегистрирован:  4 месяца 4 дня   |    .torrent скачан:  32 раза   |   
Раздают:  1  
   
загрузка...
 
Автор Сообщение

Galfimbul

avatar Galfimbul



Хорошая борьба | The Good Fight

• Год выпуска: 2018
• Страна: США
• Жанр: Драма
• Продолжительность: ~ 00:45:00
• Перевод: Профессиональный (многоголосый закадровый) || Jaskier||
• Режиссёр: Брук Кеннеди
• В ролях: Кристин Барански, Джастин Барта, Каш Джамбо, Роуз Лесли, Делрой Линдо, Сара Стил, Эрика Н. Тэйзел
• Описание: Спин-офф сериала "Хорошая Жена", в котором ключевыми героями станут Диана Локхарт и Лукка Квин, которых мы знаем ещё со времён "Жены". Так же нас ждёт встреча с новыми, не менее интересными персонажами, и возвращение старых знакомых. Мы вновь совершим погружение в мир американской и мировой юриспруденции, политики, корпоративных интриг и человеческих страстей. Всё то, за что вы любили "Хорошую Жену" присутствует и в "Хорошей Борьбе", плюс много нового, свежего, увлекательного.

<div class="post-box" style="border-color: #d2d2d2; background: #000000;"></div>
• Качество: WEBRip 720p
• Формат: MkV
• Видео: X264, 1280x640 (16:9), 23.976 fps, ~4300 kbps
• Аудио #1: AC3, 48 kHz, 6 ch, 384 kbps, CBR - RUS
• Аудио #2: AC3, 48 kHz, 6 ch, 384 kbps, CBR - ENG
• Субтитры: отсутствуют
• Реклама: Присутствует звуковая (два раза в начале и конце по 10 сек.)
Перевод и озвучивание Студия Jaskier
The Good Fight Общее
Уникальный идентификатор                 : 247963587146301909621276485725041185407 (0xBA8C0CBD16DC12BC8D8D0D033B3FD27F)
Полное имя                               : D:\Яскъер\The Good Fight. Season 2 (WEBRip l 720p l Jaskier)\The.Good.Fight.720p.DD5.1.x264-Jaskier.mkv
Формат                                   : Matroska
Версия формата                           : Version 2
Размер файла                             : 1,77 Гбайт
Продолжительность                        : 50 м. 47 с.
Общий поток                              : 4986 Кбит/сек
Дата кодирования                         : UTC 2018-03-13 20:37:33
Программа кодирования                    : mkvmerge v7.8.0 ('River Man') 32bit built on Apr  3 2015 12:11:22
Библиотека кодирования                   : libebml v1.3.1 + libmatroska v1.4.2

Видео
Идентификатор                            : 1
Формат                                   : AVC
Формат/Информация                        : Advanced Video Codec
Профиль формата                          : [email protected]
Настройки формата                        : CABAC / 10 Ref Frames
Параметр CABAC формата                   : Да
Параметр RefFrames формата               : 10 кадров
Идентификатор кодека                     : V_MPEG4/ISO/AVC
Продолжительность                        : 50 м. 47 с.
Битрейт                                  : 4119 Кбит/сек
Ширина                                   : 1280 пикселей
Высота                                   : 640 пикселей
Соотношение сторон                       : 2,000
Режим частоты кадров                     : Постоянный
Частота кадров                           : 23,976 (24000/1001) кадра/сек
Цветовое пространство                    : YUV
Субдискретизация насыщенности            : 4:2:0
Битовая глубина                          : 8 бит
Тип развёртки                            : Прогрессивная
Бит/(Пиксели*Кадры)                      : 0.210
Размер потока                            : 1,46 Гбайт (83%)
Библиотека кодирования                   : x264 core 155 r2901 7d0ff22
Настройки программы                      : cabac=1 / ref=10 / deblock=1:-3:-3 / analyse=0x3:0x133 / me=umh / subme=11 / psy=1 / psy_rd=1.00:0.00 / mixed_ref=1 / me_range=48 / chroma_me=1 / trellis=2 / 8x8dct=1 / cqm=0 / deadzone=21,11 / fast_pskip=0 / chroma_qp_offset=-2 / threads=18 / lookahead_threads=3 / sliced_threads=0 / nr=0 / decimate=0 / interlaced=0 / bluray_compat=0 / constrained_intra=0 / bframes=7 / b_pyramid=2 / b_adapt=2 / b_bias=0 / direct=3 / weightb=1 / open_gop=0 / weightp=2 / keyint=250 / keyint_min=23 / scenecut=40 / intra_refresh=0 / rc=crf / mbtree=0 / crf=17.0 / qcomp=0.60 / qpmin=0 / qpmax=69 / qpstep=4 / ip_ratio=1.40 / pb_ratio=1.30 / aq=3:0.80
Язык                                     : English
Default                                  : Да
Forced                                   : Нет
Цветовой диапазон                        : Limited
Основные цвета                           : BT.709
Характеристики трансфера                 : BT.709
Коэффициенты матрицы                     : BT.709

Аудио #1
Идентификатор                            : 2
Формат                                   : AC-3
Формат/Информация                        : Audio Coding 3
Идентификатор кодека                     : A_AC3
Продолжительность                        : 50 м. 47 с.
Вид битрейта                             : Постоянный
Битрейт                                  : 384 Кбит/сек
Каналы                                   : 6 каналов
Расположение каналов                     : Front: L C R, Side: L R, LFE
Частота                                  : 48,0 КГц
Частота кадров                           : 31,250 кадров/сек (1536 SPF)
Битовая глубина                          : 16 бит
Метод сжатия                             : С потерями
Размер потока                            : 140 Мбайт (8%)
Заголовок                                : Jaskier
Язык                                     : Russian
ServiceKind/String                       : Complete Main
Default                                  : Да
Forced                                   : Нет

Аудио #2
Идентификатор                            : 3
Формат                                   : AC-3
Формат/Информация                        : Audio Coding 3
Идентификатор кодека                     : A_AC3
Продолжительность                        : 50 м. 47 с.
Вид битрейта                             : Постоянный
Битрейт                                  : 384 Кбит/сек
Каналы                                   : 6 каналов
Расположение каналов                     : Front: L C R, Side: L R, LFE
Частота                                  : 48,0 КГц
Частота кадров                           : 31,250 кадров/сек (1536 SPF)
Битовая глубина                          : 16 бит
Метод сжатия                             : С потерями
Размер потока                            : 140 Мбайт (8%)
Язык                                     : English
ServiceKind/String                       : Complete Main
Default                                  : Нет
Forced                                   : Нет
Когда раздача ведётся путём добавления новых серий, при каждом добавлении создётся новый торрент. Чтобы начать докачку новой серии, пользователям необходимо сделать следующее:
(1) остановить скачивание,
(2) удалить старый торрент у себя из клиента (старые серии удалять не надо),
(3) скачать новый торрент и запустить его у себя в клиенте вместо старого, при этом указать клиенту путь в старую папку, куда и должно происходить скачивание новых серий.
Ваш клиент при этом должен произвести хеширование (проверку) старой папки (если не производит сам - помогите ему сделать это), и будет докачивать только те серии, которых у вас ещё нет. Старые серии при этом не удаляются, а продолжают раздаваться!
Eсли вы уже удалили старые серии, то предотвратить повторную закачку старых серий можно, отжав галочку в соответсвующих местах при запуске нового торрента. По возможности, желательно не удалять старые серии как можно дольше, чтобы релизёр не столько продолжал раздавать старые серии, а смог сконцентрироваться на новых.



Трекер:  [ 13-Мар-2018 23:48 ]

  

Скачать .torrent

Размер .torrent файла 18 KB


Размер: 1.77 GB
Хэш (hash) релиза: 1ad55de743f75797bebd6fed548eaa45fa81da10
Подписка на обновления:

Торренты, похожие на Хорошая борьба The Good Fight скачать торрент

Форум Название Автор Размер S L Добавлен
Зарубежные сериалы ·· Хорошая борьба / The Good Fight / Сезон: 2 / Серии: 1 из 10 (Брук Кеннеди) [2018, США, Драма, WEBRip] MVO (Jaskier) + Original Galfimbul 629952512601 MB 0 0 1520974089

23:48

13-Мар-18

Зарубежные сериалы ·· The Good Fight / Хорошая борьба / Сезон: 1 / Серии: 1-2 из 10 (Brooke Kennedy) [2017, США, драма, HDTVRip] Original + Rus Sub (Outbreak) Galfimbul 25356824032.36 GB 0 0 1487613253

20:54

20-Фев-17

Еще никто не оставлял запись к записи скачать торрент Хорошая борьба The Good Fight . Будь первым!

!Обратная связь