Bulgaria | December 2015 | Kampfstern Galactica

Скачать через торрент Хорошая борьба The Good Fight Фильм бесплатно в хорошем качестве torrent

Скачивайте на UnionPeer.org фильмы через торрент без регистрации. Новинки кино в хорошем качестве через торрент. На UnionPeer.org можно скачать через торрент фильмы 2014 и 2015 годов. Самые новые фильмы.

Скачать торрент Хорошая борьба The Good Fight бесплатно через .torrent фильм мультфильм сериал

Статистика раздачи
Размер:  601 MB   |    Зарегистрирован:  3 месяца 4 дня   |    .torrent скачан:  28 раз   |   
Раздают:  1  
   
загрузка...
 
Автор Сообщение

Galfimbul

avatar Galfimbul



Хорошая борьба | The Good Fight

• Год выпуска: 2018
• Страна: США
• Жанр: Драма
• Продолжительность: ~ 00:45:00
• Перевод: Профессиональный (многоголосый закадровый) || Jaskier||
• Режиссёр: Брук Кеннеди
• В ролях: Кристин Барански, Джастин Барта, Каш Джамбо, Роуз Лесли, Делрой Линдо, Сара Стил, Эрика Н. Тэйзел
• Описание: Спин-офф сериала "Хорошая Жена", в котором ключевыми героями станут Диана Локхарт и Лукка Квин, которых мы знаем ещё со времён "Жены". Так же нас ждёт встреча с новыми, не менее интересными персонажами, и возвращение старых знакомых. Мы вновь совершим погружение в мир американской и мировой юриспруденции, политики, корпоративных интриг и человеческих страстей. Всё то, за что вы любили "Хорошую Жену" присутствует и в "Хорошей Борьбе", плюс много нового, свежего, увлекательного.

<div class="post-box" style="border-color: #d2d2d2; background: #000000;"></div>
• Качество: WEBRip
• Формат: AVI
• Видео: XviD, 704x352 (2,000), 23.976 fps, ~1400 kbps
• Аудио #1: MP3, 48 kHz, 2 ch, 128 kbps, CBR - RUS
• Аудио #2: MP3, 48 kHz, 2 ch, 128 kbps, CBR - ENG
• Субтитры: отсутствуют
• Реклама: Присутствует звуковая (два раза в начале и конце по 10 сек.)
Перевод и озвучивание Студия Jaskier
Общее
Полное имя                               : D:\Яскъер\The Good Fight. Season 2 (WEBRip l 400p l Jaskier)\The.Good.Fight.S02E01.WEBRip.Rus.Eng.Jaskier..avi
Формат                                   : AVI
Формат/Информация                        : Audio Video Interleave
Размер файла                             : 601 Мбайт
Продолжительность                        : 50 м. 47 с.
Общий поток                              : 1654 Кбит/сек
Программа кодирования                    : VirtualDubMod 1.5.10.3 | www.virtualdub-fr.org || (build 2550/release)
Библиотека кодирования                   : VirtualDubMod build 2550/release

Видео
Идентификатор                            : 0
Формат                                   : MPEG-4 Visual
Профиль формата                          : Advanced [email protected]
Настройки формата                        : BVOP1
Параметр BVOP формата                    : 1
Параметр QPel формата                    : Нет
Параметр GMC формата                     : Без точки перехода
Параметр матрицы формата                 : Default (MPEG)
Идентификатор кодека                     : XVID
Идентификатор кодека/Подсказка           : XviD
Продолжительность                        : 50 м. 47 с.
Битрейт                                  : 1384 Кбит/сек
Ширина                                   : 704 пикселя
Высота                                   : 352 пикселя
Соотношение сторон                       : 2,000
Частота кадров                           : 23,976 (24000/1001) кадра/сек
Цветовое пространство                    : YUV
Субдискретизация насыщенности            : 4:2:0
Битовая глубина                          : 8 бит
Тип развёртки                            : Прогрессивная
Метод сжатия                             : С потерями
Бит/(Пиксели*Кадры)                      : 0.233
Размер потока                            : 503 Мбайт (84%)
Библиотека кодирования                   : XviD 73

Аудио #1
Идентификатор                            : 1
Формат                                   : MPEG Audio
Версия формата                           : Version 1
Профиль формата                          : Layer 3
Настройки формата                        : Joint stereo / MS Stereo
Идентификатор кодека                     : 55
Идентификатор кодека/Подсказка           : MP3
Продолжительность                        : 50 м. 47 с.
Вид битрейта                             : Постоянный
Битрейт                                  : 128 Кбит/сек
Каналы                                   : 2 канала
Частота                                  : 48,0 КГц
Метод сжатия                             : С потерями
Размер потока                            : 46,5 Мбайт (8%)
Выравнивание                             : Соединение по промежуткам
Продолжительность промежутка             : 42  мс. (1,00 видеокадр)
Время предзагрузки промежутка            : 504  мс.

Аудио #2
Идентификатор                            : 2
Формат                                   : MPEG Audio
Версия формата                           : Version 1
Профиль формата                          : Layer 3
Настройки формата                        : Joint stereo / MS Stereo
Идентификатор кодека                     : 55
Идентификатор кодека/Подсказка           : MP3
Продолжительность                        : 50 м. 47 с.
Вид битрейта                             : Постоянный
Битрейт                                  : 128 Кбит/сек
Каналы                                   : 2 канала
Частота                                  : 48,0 КГц
Метод сжатия                             : С потерями
Размер потока                            : 46,5 Мбайт (8%)
Выравнивание                             : Соединение по промежуткам
Продолжительность промежутка             : 42  мс. (1,00 видеокадр)
Время предзагрузки промежутка            : 504  мс.
Когда раздача ведётся путём добавления новых серий, при каждом добавлении создётся новый торрент. Чтобы начать докачку новой серии, пользователям необходимо сделать следующее:
(1) остановить скачивание,
(2) удалить старый торрент у себя из клиента (старые серии удалять не надо),
(3) скачать новый торрент и запустить его у себя в клиенте вместо старого, при этом указать клиенту путь в старую папку, куда и должно происходить скачивание новых серий.
Ваш клиент при этом должен произвести хеширование (проверку) старой папки (если не производит сам - помогите ему сделать это), и будет докачивать только те серии, которых у вас ещё нет. Старые серии при этом не удаляются, а продолжают раздаваться!
Eсли вы уже удалили старые серии, то предотвратить повторную закачку старых серий можно, отжав галочку в соответсвующих местах при запуске нового торрента. По возможности, желательно не удалять старые серии как можно дольше, чтобы релизёр не столько продолжал раздавать старые серии, а смог сконцентрироваться на новых.



Трекер:  [ 13-Мар-2018 23:48 ]

  

Скачать .torrent

Размер .torrent файла 12 KB


Размер: 601 MB
Хэш (hash) релиза: 5edac4700d5d4afca54e77505b57b09712baf9fb
Подписка на обновления:

Торренты, похожие на Хорошая борьба The Good Fight скачать торрент

Форум Название Автор Размер S L Добавлен
Зарубежные сериалы ·· Хорошая борьба / The Good Fight / Сезон: 2 / Серии: 1 из 10 (Брук Кеннеди) [2018, США, Драма, WEBRip 720p] MVO (Jaskier) + Original Galfimbul 18995159361.77 GB 0 0 1520974112

23:48

13-Мар-18

Зарубежные сериалы ·· The Good Fight / Хорошая борьба / Сезон: 1 / Серии: 1-2 из 10 (Brooke Kennedy) [2017, США, драма, HDTVRip] Original + Rus Sub (Outbreak) Galfimbul 25356824032.36 GB 0 0 1487613253

20:54

20-Фев-17

Еще никто не оставлял запись к записи скачать торрент Хорошая борьба The Good Fight . Будь первым!

!Обратная связь