SandyParr | Puffin Browser Pro v4.7.4.2567 (browser com flashplayer) cracked | View More

Скачать через торрент Аннигиляция Annihilation Фильм бесплатно в хорошем качестве torrent

Скачивайте на UnionPeer.org фильмы через торрент без регистрации. Новинки кино в хорошем качестве через торрент. На UnionPeer.org можно скачать через торрент фильмы 2014 и 2015 годов. Самые новые фильмы.

Скачать торрент Аннигиляция Annihilation бесплатно через .torrent фильм мультфильм сериал

Статистика раздачи
Размер:  3.43 GB   |    Зарегистрирован:  5 месяцев 5 дней   |    .torrent скачан:  219 раз   |   
Раздают:  1  
   
загрузка...
 
Автор Сообщение

Galfimbul

avatar Galfimbul


Аннигиляция /Annihilation

Год выхода: 2018
Жанр: Фантастика, фэнтези, ужасы, триллер, драма, детектив, приключения
Режиссер: Алекс Гарленд
В ролях: Натали Портман, Дженнифер Джейсон Ли, Оскар Айзек, Тесса Томпсон, Джина Родригез, Тува Новотны, Бенедикт Вонг, Дэвид Гяси, Соноя Мидзуно, Джон Шваб

О фильме:
На Землю прилетает маленький метеорит и становится причиной больших перемен. Он врезается в одиноко стоящий маяк, что загадочным образом меняет территорию вокруг. Профессор биологии Лина уже год страдает от потери мужа-военного. Кейн отправился на очередное секретное задание, но так и не вернулся — жив ли, погиб — женщина не знает, пока однажды дезориентированный и слегка бледный супруг внезапно не появляется на пороге их спальни. Радость длится недолго — у мужчины начинаются судороги и множественные кровотечения, а по дороге в больницу машину скорой помощи тормозят военные. Лина приходит в себя на секретной базе рядом с той самой загадочной зоной, куда уже отправлялись многочисленные экспедиции, но вернулся, оказывается, только один человек — её Кейн.



Страна: Великобритания, США
Студия: Sepia Films
Продолжительность: 01:55:29
Перевод: Любительский одноголосый

Файл
Кодек: AVC
Качество: WEBRip 1080p
Видео: MPEG-4 AVC, 1920x1080, 3650 Кбит/с, 23.976 кадр/с
Звук: Небольшая реклама в титрах
Аудио #1: Русский ( AC3, 2ch, 244 Кбит/с, 41.0 KHz) Любительский (одноголосый) [Хихикающий доктор]
Аудио #2: Английский ( AC3, 6ch, 384 Кбит/с, 48.0 KHz)
Субтитры: Русские, английские, немецкие
Источник: Annihilation.2018.1080p.NF.WEB-DL.DD5.1.x264-NTG
General
Unique ID : 183827922502592757213684678468579012362 (0x8A4BF8559ACD2D5398BD5D61DE56AF0A)
Complete name : Annihilation.2018.WEB-DLRip.1080p.mkv
Format : Matroska
Format version : Version 4 / Version 2
File size : 3.43 GiB
Duration : 1 h 55 min
Overall bit rate mode : Variable
Overall bit rate : 4 248 kb/s
Encoded date : UTC 2018-03-13 16:59:12
Writing application : mkvmerge v7.1.0 ('Good Love') 64bit built on Jul 27 2014 13:06:55
Writing library : libebml v1.3.0 + libmatroska v1.4.1

Video
ID : 1
Format : AVC
Format/Info : Advanced Video Codec
Format profile : [email protected]
Format settings : CABAC / 3 Ref Frames
Format settings, CABAC : Yes
Format settings, ReFrames : 3 frames
Codec ID : V_MPEG4/ISO/AVC
Duration : 1 h 55 min
Bit rate mode : Variable
Bit rate : 3 650 kb/s
Maximum bit rate : 5 475 kb/s
Width : 1 920 pixels
Height : 1 080 pixels
Display aspect ratio : 16:9
Frame rate mode : Constant
Frame rate : 23.976 (24000/1001) FPS
Color space : YUV
Chroma subsampling : 4:2:0
Bit depth : 8 bits
Scan type : Progressive
Bits/(Pixel*Frame) : 0.073
Stream size : 2.93 GiB (86%)
Writing library : x264 core 148 r2715 7e75228
Encoding settings : cabac=1 / ref=3 / deblock=1:0:0 / analyse=0x1:0x111 / me=umh / subme=10 / psy=1 / psy_rd=1.00:0.00 / mixed_ref=1 / me_range=24 / chroma_me=1 / trellis=2 / 8x8dct=0 / cqm=0 / deadzone=21,11 / fast_pskip=1 / chroma_qp_offset=-2 / threads=8 / lookahead_threads=1 / sliced_threads=0 / nr=0 / decimate=1 / interlaced=0 / bluray_compat=0 / stitchable=1 / constrained_intra=0 / bframes=2 / b_pyramid=0 / b_adapt=2 / b_bias=0 / direct=3 / weightb=1 / open_gop=0 / weightp=2 / keyint=48 / keyint_min=25 / scenecut=0 / intra_refresh=0 / rc_lookahead=48 / rc=2pass / mbtree=1 / bitrate=3650 / ratetol=1.0 / qcomp=0.50 / qpmin=6 / qpmax=51 / qpstep=4 / cplxblur=20.0 / qblur=0.5 / vbv_maxrate=5475 / vbv_bufsize=7300 / nal_hrd=vbr / filler=0 / ip_ratio=1.40 / aq=1:1.00
Language : English
Default : Yes
Forced : No

Audio #1
ID : 2
Format : AC-3
Format/Info : Audio Coding 3
Codec ID : A_AC3
Duration : 1 h 55 min
Bit rate mode : Constant
Bit rate : 224 kb/s
Channel(s) : 2 channels
Channel positions : Front: L R
Sampling rate : 44.1 kHz
Frame rate : 28.711 FPS (1536 SPF)
Bit depth : 16 bits
Compression mode : Lossy
Stream size : 185 MiB (5%)
Language : Russian
Service kind : Complete Main
Default : Yes
Forced : No

Audio #2
ID : 3
Format : AC-3
Format/Info : Audio Coding 3
Codec ID : A_AC3
Duration : 1 h 55 min
Bit rate mode : Constant
Bit rate : 384 kb/s
Channel(s) : 6 channels
Channel positions : Front: L C R, Side: L R, LFE
Sampling rate : 48.0 kHz
Frame rate : 31.250 FPS (1536 SPF)
Bit depth : 16 bits
Compression mode : Lossy
Stream size : 317 MiB (9%)
Language : English
Service kind : Complete Main
Default : No
Forced : No

Text #1
ID : 4
Format : UTF-8
Codec ID : S_TEXT/UTF8
Codec ID/Info : UTF-8 Plain Text
Duration : 1 h 47 min
Bit rate : 55 b/s
Count of elements : 922
Stream size : 43.4 KiB (0%)
Language : Russian
Default : No
Forced : No

Text #2
ID : 5
Format : UTF-8
Codec ID : S_TEXT/UTF8
Codec ID/Info : UTF-8 Plain Text
Duration : 1 h 46 min
Bit rate : 34 b/s
Count of elements : 940
Stream size : 27.1 KiB (0%)
Language : English
Default : No
Forced : No

Text #3
ID : 6
Format : UTF-8
Codec ID : S_TEXT/UTF8
Codec ID/Info : UTF-8 Plain Text
Duration : 1 h 47 min
Bit rate : 40 b/s
Count of elements : 1098
Stream size : 32.2 KiB (0%)
Title : SDH
Language : English
Default : No
Forced : No

Text #4
ID : 7
Format : UTF-8
Codec ID : S_TEXT/UTF8
Codec ID/Info : UTF-8 Plain Text
Duration : 1 h 49 min
Bit rate : 30 b/s
Count of elements : 919
Stream size : 24.8 KiB (0%)
Language : German
Default : No
Forced : No

Text #5
ID : 8
Format : UTF-8
Codec ID : S_TEXT/UTF8
Codec ID/Info : UTF-8 Plain Text
Duration : 1 h 46 min
Bit rate : 30 b/s
Count of elements : 881
Stream size : 24.1 KiB (0%)
Language : French
Default : No
Forced : No
Источник http://arutor.org

Трекер:  [ 13-Мар-2018 21:50 ]

  

Скачать .torrent

Размер .torrent файла 17 KB


Размер: 3.43 GB
Хэш (hash) релиза: b376b314bf9950d2eeb29ec132d1c44e0ba5195f
Подписка на обновления:

Торренты, похожие на Аннигиляция Annihilation скачать торрент

Форум Название Автор Размер S L Добавлен
Зарубежные фильмы 2016-2018 (Новинки зарубежного кино) ·%· Аннигиляция / Annihilation (2018) HDRip | КПК | NewStudio Galfimbul 447420975427 MB 0 0 1529964016

01:00

26-Июн-18

Зарубежные фильмы 2016-2018 (Новинки зарубежного кино) ·%· Аннигиляция / Annihilation (2018) BDRip 1080p от HELLYWOOD | P, A Galfimbul 85185188527.93 GB 0 0 1529901007

07:30

25-Июн-18

Зарубежные фильмы 2016-2018 (Новинки зарубежного кино) ·· Аннигиляция / Annihilation (2018) BDRip 1080p | P, A Galfimbul 1335869733512.44 GB 0 0 1529829008

11:30

24-Июн-18

Зарубежные фильмы 2016-2018 (Новинки зарубежного кино) ·· Аннигиляция / Annihilation (Алекс Гарленд) [2018 г., ужасы, фантастика, фэнтези, триллер, драма, детектив, приключения, BDRip] HDRezka studio Galfimbul 15682396161.46 GB 2 0 1526994609

16:10

22-Май-18

Зарубежные фильмы 2016-2018 (Новинки зарубежного кино) ·· Аннигиляция / Annihilation (Алекс Гарленд) [2018 г., ужасы, фантастика, фэнтези, триллер, драма, детектив, приключения, WEBRip 1080pъ Jaskier Galfimbul 38174390023.56 GB 0 0 1522984245

06:10

6-Апр-18

Зарубежные фильмы 2016-2018 (Новинки зарубежного кино) ·· Аннигиляция / Annihilation (Алекс Гарленд) [2018 г., ужасы, фантастика, фэнтези, триллер, драма, детектив, приключения, WEBRip 720p] Jaskier Galfimbul 23533950262.19 GB 2 0 1522984231

06:10

6-Апр-18

Зарубежные фильмы 2016-2018 (Новинки зарубежного кино) ·· Аннигиляция / Annihilation (Алекс Гарленд) [2018 г., ужасы, фантастика, фэнтези, триллер, драма, детектив, приключения, WEBRip] Jaskier Galfimbul 15671418881.46 GB 0 0 1522984216

06:10

6-Апр-18

Зарубежные фильмы 2016-2018 (Новинки зарубежного кино) ·· Аннигиляция / Annihilation (Алекс Гарленд) [2018 г., ужасы, фантастика, фэнтези, триллер, драма, детектив, приключения, WEBRip 1080p] Яроцкий Galfimbul 39282894373.66 GB 0 0 1522836049

13:00

4-Апр-18

Зарубежные фильмы 2016-2018 (Новинки зарубежного кино) ·· Аннигиляция / Annihilation (Алекс Гарленд) [2018 г., ужасы, фантастика, фэнтези, триллер, драма, детектив, приключения, WEBRip] NewStudio Galfimbul 15671459841.46 GB 0 0 1522145416

13:10

27-Мар-18

Зарубежные фильмы 2016-2018 (Новинки зарубежного кино) ·· Аннигиляция / Annihilation (Алекс Гарленд) [2018 г., ужасы, фантастика, фэнтези, триллер, драма, детектив, приключения, WEBRip 1080p] NewStudio, HDRezka Galfimbul 43723752974.07 GB 0 0 1522140617

11:50

27-Мар-18

Зарубежные фильмы 2016-2018 (Новинки зарубежного кино) ·· Аннигиляция / Annihilation (Алекс Гарленд) [2018 г., ужасы, фантастика, фэнтези, триллер, драма, детектив, приключения, WEB-DL 1080p] DUB | Чистый звук Galfimbul 47908577744.46 GB 2 0 1521528255

09:44

20-Мар-18

Зарубежные фильмы 2016-2018 (Новинки зарубежного кино) ·· Аннигиляция / Annihilation (Алекс Гарленд) [2018 г., ужасы, фантастика, фэнтези, триллер, драма, детектив, приключения, WEB-DL 720p] DUB | Чистый звук Galfimbul 43891698654.09 GB 2 0 1521528253

09:44

20-Мар-18

Зарубежные фильмы 2016-2018 (Новинки зарубежного кино) ·· Аннигиляция / Annihilation (Алекс Гарленд) [2018 г., ужасы, фантастика, фэнтези, триллер, драма, детектив, приключения, WEB-DLRip] DUB | Чистый звук Galfimbul 21880197122.04 GB 0 0 1521528250

09:44

20-Мар-18

Зарубежные фильмы 2016-2018 (Новинки зарубежного кино) ·· Аннигиляция / Annihilation (Алекс Гарленд) [2018 г., ужасы, фантастика, фэнтези, триллер, драма, детектив, приключения, WEB-DLRip] DUB | Чистый звук Galfimbul 14675742721.37 GB 0 0 1521528248

09:44

20-Мар-18

Зарубежные фильмы 2016-2018 (Новинки зарубежного кино) ·· Аннигиляция / Annihilation (Алекс Гарленд) [2018, Фантастика, фэнтези, ужасы, триллер, драма, детектив, приключения, WEBRip 720p] Galfimbul 23171985432.16 GB 0 0 1521214230

18:30

16-Мар-18

Зарубежные фильмы 2016-2018 (Новинки зарубежного кино) ·· Аннигиляция / Annihilation (Алекс Гарленд) [2018, Фантастика, фэнтези, ужасы, триллер, драма, детектив, приключения, WEBRip] HDRezka studio Galfimbul 785783390749 MB 2 0 1521189106

11:31

16-Мар-18

Зарубежные фильмы 2016-2018 (Новинки зарубежного кино) ·· Аннигиляция / Annihilation (Алекс Гарленд) [2018, Фантастика, фэнтези, ужасы, триллер, драма, детектив, приключения, WEBRip] HDRezka studio Galfimbul 15714672641.46 GB 0 0 1521023457

13:30

14-Мар-18

Зарубежные фильмы 2016-2018 (Новинки зарубежного кино) ·· Аннигиляция / Annihilation (Алекс Гарленд) [2018, Фантастика, фэнтези, ужасы, триллер, драма, детектив, приключения, WEBRip 1080p] HDRezka studio Galfimbul 36511791293.4 GB 3 0 1521023422

13:30

14-Мар-18

Зарубежные фильмы 2016-2018 (Новинки зарубежного кино) ·· Аннигиляция / Annihilation (Алекс Гарленд) [2018, Фантастика, фэнтези, ужасы, триллер, драма, детектив, приключения, WEBRip 1080p] Galfimbul 38457956533.58 GB 4 0 1521006021

08:40

14-Мар-18

Зарубежные фильмы 2016-2018 (Новинки зарубежного кино) ·· Аннигиляция / Annihilation (Алекс Гарленд) [2018, Фантастика, фэнтези, ужасы, триллер, драма, детектив, приключения, WEBRip 1080p] Galfimbul 36514279553.4 GB 0 0 1520967043

21:50

13-Мар-18

Еще никто не оставлял запись к записи скачать торрент Аннигиляция Annihilation . Будь первым!

!Обратная связь