3x09 El Chapo | Barakamon | Великолепный век / Muhtesem Yüzyil

Скачать через торрент Охота на дикарей Hunt for the Wilderpeople Фильм бесплатно в хорошем качестве torrent

Скачивайте на UnionPeer.org фильмы через торрент без регистрации. Новинки кино в хорошем качестве через торрент. На UnionPeer.org можно скачать через торрент фильмы 2014 и 2015 годов. Самые новые фильмы.

Скачать торрент Охота на дикарей Hunt for the Wilderpeople бесплатно через .torrent фильм мультфильм сериал

Статистика раздачи
Размер:  1.47 GB   |    Зарегистрирован:  5 месяцев 3 дня   |    .torrent скачан:  70 раз   |   
Раздают:  1  
   
загрузка...
 
Автор Сообщение

Galfimbul

avatar Galfimbul


Охота на дикарей / Hunt for the Wilderpeople

Страна: Новая Зеландия
Жанр: комедия, приключения
Год выпуска: 2016
Продолжительность: 01:41:05

Перевод: Авторский (одноголосый закадровый) Андрей Гаврилов
Субтитры: нет
Режиссер: Тайка Вайтити / Taika Waititi

В ролях: Сэм Нил, Джулиан Деннисон, Рима Те Вьята, Рэйчел Хаус, Тиореоре Нгатай-Мельбурн, Оскар Кайтли, Стэн Уокер, Майк Миноуг, Коэн Холлоуэй

Описание: Рикки Бэйкер — упитанный городской хулиган. Сотрудница социальной службы Пола отвозит подростка в сельскую местность, где живёт единственная готовая принять его семья — Белла и её нелюдимый муж Гек. Когда Белла умирает и социальная защита собирается забрать Рикки, тот убегает в леса. Гек отправляется за ним. Сумасбродная Пола убеждена, что странный Гек слетел с катушек из-за смерти жены и похитил подростка. Она развязывает общенациональную охоту на мальчика и его «совратителя»....

Доп. информация: Выражаю огромную благодарность Нордеру за синхронизацию звуковой дорожки.



Сэмпл: http://multi-up.com/1190655

Качество видео: BDRip (Исходник Hunt.for.the Wilderpeople.BDRemux.FilmsClub)
Формат видео: AVI

Видео: XviD 73, 720x304, (2,35:1), 23,976 fps, 1630 Кбит/с, 8 бит, 0.31 bit/pixel
Аудио: Русский (АС3, 6 ch (Front: L C R, Side: L R, LFE), 48,0 KHz, 448 Kbps)
ОбщееПолное имя : H:\Фильмы на трекер\Охота на дикарей (комедия, драма, приключения 2016 год).aviФормат : AVIФормат/Информация : Audio Video InterleaveРазмер файла : 1,47 ГбайтПродолжительность : 1 ч. 41 м.Общий поток : 2087 Кбит/секПрограмма кодирования : VirtualDubMod 1.5.10.2 (build 2540/release)Библиотека кодирования : VirtualDubMod build 2540/release

ВидеоИдентификатор : 0Формат : MPEG-4 VisualПрофиль формата : Advanced [email protected]Параметр BVOP формата : 2Параметр QPel формата : НетПараметр GMC формата : Без точки переходаПараметр матрицы формата : ВыборочнаяИдентификатор кодека : XVIDИдентификатор кодека/Подсказка : XviDПродолжительность : 1 ч. 41 м.Битрейт : 1630 Кбит/секШирина : 720 пикселейВысота : 304 пикселяСоотношение сторон : 2,35:1Частота кадров : 23,976 (23976/1000) кадра/секЦветовое пространство : YUVСубдискретизация насыщенности : 4:2:0Битовая глубина : 8 битТип развёртки : ПрогрессивнаяМетод сжатия : С потерямиБит/(Пиксели*Кадры) : 0.311Размер потока : 1,15 Гбайт (78%)Библиотека кодирования : XviD 73

АудиоИдентификатор : 1Формат : AC-3Формат/Информация : Audio Coding 3Расширение режима : CM (complete main)Параметр Endianness формата : BigИдентификатор кодека : 2000Продолжительность : 1 ч. 41 м.Вид битрейта : ПостоянныйБитрейт : 448 Кбит/секКаналы : 6 каналовРасположение каналов : Front: L C R, Side: L R, LFEЧастота : 48,0 КГцЧастота кадров : 31,250 кадров/сек (1536 spf)Метод сжатия : С потерямиРазмер потока : 324 Мбайт (21%)Выравнивание : Разделение по промежуткамПродолжительность промежутка : 42 мс. (1,00 видеокадр)Время предзагрузки промежутка : 500 мс.


Трекер:  [ 13-Мар-2018 18:30 ]

  

Скачать .torrent

Размер .torrent файла 15 KB


Размер: 1.47 GB
Хэш (hash) релиза: 866e451145f2c6d33a6636d212131915158d12c1
Подписка на обновления:

Торренты, похожие на Охота на дикарей Hunt for the Wilderpeople скачать торрент

Форум Название Автор Размер S L Добавлен
Зарубежные фильмы 2016-2018 (Новинки зарубежного кино) ·· Охота на диких людей / Охота на дикарей / Hunt for the Wilderpeople (Тайка Вайтити / Taika Waititi) [2016, Новая Зеландия, драма, комедия, приключения, BDRemux 1080p] Galfimbul 2654293965224.72 GB 0 0 1522573237

12:00

1-Апр-18

Зарубежные фильмы 2016-2018 (Новинки зарубежного кино) ·· Охота на диких людей / Охота на дикарей / Hunt for the Wilderpeople (Тайка Вайтити / Taika Waititi) [2016, Новая Зеландия, драма, комедия, приключения, HDRip] Sub (Rus, Eng) + Original Eng Galfimbul 14670214421.37 GB 0 0 1476165587

08:59

11-Окт-16

Зарубежные фильмы 2016-2018 (Новинки зарубежного кино) ·· Охота на диких людей / Охота на дикарей / Hunt for the Wilderpeople (Тайка Вайтити / Taika Waititi) [2016, Новая Зеландия, драма, комедия, приключения, BDRip 1080p] Galfimbul 89063210208.29 GB 0 0 1475437284

22:41

2-Окт-16

Зарубежные фильмы 2016-2018 (Новинки зарубежного кино) ·· Охота на диких людей / Охота на дикарей / Hunt for the Wilderpeople (Тайка Вайтити / Taika Waititi) [2016, Новая Зеландия, драма, комедия, приключения, BDRip] Galfimbul 17681612801.65 GB 0 0 1475335787

18:29

1-Окт-16

Зарубежные фильмы 2016-2018 (Новинки зарубежного кино) ·· Охота на диких людей / Охота на дикарей / Hunt for the Wilderpeople (Тайка Вайтити / Taika Waititi) [2016, Новая Зеландия, драма, комедия, приключения, BDRip 720p] Galfimbul 37718883383.51 GB 0 0 1475335766

18:29

1-Окт-16

Зарубежные фильмы 2016-2018 (Новинки зарубежного кино) ·%· Охота на дикарей / Hunt for the Wilderpeople (2016) BDRip от MegaPeer | Лицензия Galfimbul 15670647831.46 GB 0 0 1530182535

13:42

28-Июн-18

Зарубежные фильмы до 2016 ·· Охота на дикарей / Hunt for the Wilderpeople (Тайка Вайтити / Taika Waititi) [2016, Новая Зеландия, комедия, приключения, драма, DVD9] [EUR Transfer] MVO + 28x Sub + Original Eng Galfimbul 54358528005.06 GB 0 0 1496599235

21:00

4-Июн-17

Зарубежные фильмы 2016-2018 (Новинки зарубежного кино) ·· Охота на дикарей / Hunt for the Wilderpeople (Тайка Вайтити / Taika Waititi) [2016, Новая Зеландия, драма, комедия, приключения, BDRip] MVO (CEE) + Original Eng + subs (Rus, Eng) Galfimbul 23421052512.18 GB 0 0 1492677169

11:32

20-Апр-17

Зарубежные фильмы до 2016 ·· Охота на дикарей / Hunt for the Wilderpeople (Тайка Вайтити / Taika Waititi) [2016, Новая Зеландия, драма, комедия, приключения, BDRip 720p] MVO + Sub Rus, Eng + Original Eng Galfimbul 61781864125.75 GB 0 0 1491238562

19:56

3-Апр-17

Зарубежные фильмы до 2016 ·· Охота на дикарей / Hunt for the Wilderpeople (Тайка Вайтити / Taika Waititi) [2016, Новая Зеландия, драма, комедия, приключения, BDRip 1080p] MVO + Sub Rus, Eng + Original Eng Galfimbul 1399500794813.03 GB 0 0 1491238540

19:55

3-Апр-17

Зарубежные фильмы до 2016 ·· Охота на дикарей / Hunt for the Wilderpeople (Тайка Вайтити / Taika Waititi) [2016, Новая Зеландия, драма, комедия, приключения, Blu-ray disc 1080p] [CEE] MVO + Sub Rus, Eng + Original Eng Galfimbul 2967811043527.64 GB 0 0 1490550722

20:52

26-Мар-17

Зарубежные фильмы 2016-2018 (Новинки зарубежного кино) ·· Охота на дикарей / Hunt for the Wilderpeople (Тайка Вайтити / Taika Waititi) [2016, Новая Зеландия, драма, комедия, приключения, BDRip] MVO (GreenРай Studio) Galfimbul 15699161181.46 GB 0 0 1476165527

08:58

11-Окт-16

Зарубежные фильмы 2016-2018 (Новинки зарубежного кино) ·· Охота на дикарей / Охота на диких людей / Hunt for the Wilderpeople (Тайка Вайтити / Taika Waititi) [2016, Новая Зеландия, драма, комедия, приключения, HDRip] MVO (GreenРай Studio) Galfimbul 784555956748 MB 0 0 1483442258

14:17

3-Янв-17

Еще никто не оставлял запись к записи скачать торрент Охота на дикарей Hunt for the Wilderpeople . Будь первым!

!Обратная связь