VA - The Dome Summer 2016 [2CD] (2016) FLAC | Filmi İzle | Ralph Brown

Скачать через торрент Филип Марлоу: Частный детектив Philip Marlowe, Private Eye Фильм бесплатно в хорошем качестве torrent

Скачивайте на UnionPeer.org фильмы через торрент без регистрации. Новинки кино в хорошем качестве через торрент. На UnionPeer.org можно скачать через торрент фильмы 2014 и 2015 годов. Самые новые фильмы.

Скачать торрент Филип Марлоу: Частный детектив Philip Marlowe, Private Eye бесплатно через .torrent фильм мультфильм сериал

Статистика раздачи
Размер:  3.4 GB   |    Зарегистрирован:  2 месяца 11 дней   |    .torrent скачан:  29 раз   |   
Раздают:  1  
   
загрузка...
 
Автор Сообщение

Galfimbul

avatar Galfimbul


Филип Марлоу: Частный детектив / Philip Marlowe, Private Eye
Год выпуска: 1983
Страна: Великобритания, Канада, США
Жанр: детектив
Продолжительность: 00:53:00
Перевод: Субтитры
Режиссёр: Роберт Айскоув / Robert Iscove, Питер Р. Хант / Peter R. Hunt
В ролях: Пауэрс Бут, Билли Кирнс, Кэтрин Ли Скотт, Кен Поуг, Фрэнк Пеллегрино, Билли Дж. Митчелл, Тони Сибболд, Джим Данк, Майкл Шэннон и др.
Описание: Филип Марлоу — из числа самых популярных героев мировой литературы. Он — частный детектив, умный, проницательный, жесткий, циничный, практически в одиночку распутывающий самые невероятные дела. Жестокие убийства, таинственные исчезновения, шантаж… Ведя расследование, он каждый раз попадает в паутину лжи, в лабиринты многоходовых комбинаций преступников и часто сам оказывается на краю гибели или обвиняется в убийстве. Его «среда обитания» — коррумпированные политики, продажные полицейские, короли преступного мира, очаровательные девушки с сомнительной репутацией, роковые женщины с несомненной репутацией, звезды Голливуда обоих полов…
Сэмпл: http://multi-up.com/1190658
Качество: DVDRip
Формат: AVI
Видео: XviD, 704x544 (1.294), 23.976 fps, 1 357 Kbps (0.148 bit/pixel) - 1,3,4 и 5 серии
Видео: XviD, 704x544 (1.294), 29.970 fps, 1 457 Kbps (0.127 bit/pixel) - 2 серия
Аудио: AC-3, 48.0 KHz, 5 ch, 448 Kbps, CBR - английский
Субтитры: Русские (SRT)
Реклама: Нет
Сериал попросили зарелизить. Видеоряд был предоставлен "как есть", рипы не мои. Ввиду отсутствия на трекере 1-го сезона, прошу оставить раздачу с любым статусом.
Автор субтитров: А. Вторушин.
Общее
Полное имя : D:\Раздачи\Philip.Marlowe.Private.Eye.s01.DVDRip\s01e01 - The Pencil.avi
Формат : AVI
Формат/Информация : Audio Video Interleave
Размер файла : 697 Мбайт
Продолжительность : 53 м.
Общий поток : 1814 Кбит/сек
Программа кодирования : VirtualDubMod 1.5.10.2 (build 2540/release)
Библиотека кодирования : VirtualDubMod build 2540/release

Видео
Идентификатор : 0
Формат : MPEG-4 Visual
Профиль формата : Advanced [email protected]
Параметр BVOP формата : 2
Параметр QPel формата : Нет
Параметр GMC формата : Без точки перехода
Параметр матрицы формата : Default (H.263)
Режим смешивания : Сжатый битовый поток
Идентификатор кодека : XVID
Идентификатор кодека/Подсказка : XviD
Продолжительность : 53 м.
Битрейт : 1357 Кбит/сек
Ширина : 704 пикселя
Высота : 544 пикселя
Соотношение сторон : 1,294
Частота кадров : 23,976 (23976/1000) кадра/сек
Цветовое пространство : YUV
Субдискретизация насыщенности : 4:2:0
Битовая глубина : 8 бит
Тип развёртки : Прогрессивная
Метод сжатия : С потерями
Бит/(Пиксели*Кадры) : 0.148
Размер потока : 521 Мбайт (75%)
Библиотека кодирования : XviD 1.2.1 (UTC 2008-12-04)

Аудио
Идентификатор : 1
Формат : AC-3
Формат/Информация : Audio Coding 3
Расширение режима : CM (complete main)
Параметр Endianness формата : Big
Идентификатор кодека : 2000
Продолжительность : 53 м.
Вид битрейта : Постоянный
Битрейт : 448 Кбит/сек
Каналы : 6 каналов
Channel(s)_Original : 5 каналов
Расположение каналов : Front: L C R, Side: L R
Частота : 48,0 КГц
Частота кадров : 31,250 кадров/сек (1536 spf)
Метод сжатия : С потерями
Размер потока : 172 Мбайт (25%)
Выравнивание : Разделение по промежуткам
Продолжительность промежутка : 42 мс. (1,00 видеокадр)
Время предзагрузки промежутка : 500 мс.
Предыдущие и альтернативные раздачи

Трекер:  [ 13-Мар-2018 17:18 ]

  

Скачать .torrent

Размер .torrent файла 18 KB


Размер: 3.4 GB
Хэш (hash) релиза: 17a47e545784f00b46855e5e32853534bf635516
Подписка на обновления:

Еще никто не оставлял запись к записи скачать торрент Филип Марлоу: Частный детектив Philip Marlowe, Private Eye . Будь первым!

!Обратная связь