Chapter 75: I hung on | Die Garde der Löwen | Facebook

Скачать через торрент Кайф с доставкой High Maintenance Фильм бесплатно в хорошем качестве torrent

Скачивайте на UnionPeer.org фильмы через торрент без регистрации. Новинки кино в хорошем качестве через торрент. На UnionPeer.org можно скачать через торрент фильмы 2014 и 2015 годов. Самые новые фильмы.

Скачать торрент Кайф с доставкой High Maintenance бесплатно через .torrent фильм мультфильм сериал

Статистика раздачи
Размер:  6.91 GB   |    Зарегистрирован:  5 месяцев 6 дней   |    .torrent скачан:  26 раз   |   
Раздают:  1  
   
загрузка...
 
Автор Сообщение

Galfimbul

avatar Galfimbul


Кайф с доставкой
High Maintenance
Годы выпуска: 2012-2018
Страна: США
Производство: HBO, Vimeo
Жанр: драма, комедия
Продолжительность: 00:30:00
Перевод: Любительский (двухголосый закадровый) Jimmy J.
Авторы идеи: Катя Бликфелд и Бен Синклер
В ролях: Бен Синклер, Эйвери Монсен, Яэль Стоун, Грета Ли, Кейт Лин Шэл, Ребекка Нейоми Джоунс, Абдулла Саид, Клем Чунг, Кевин Мамбо, Артур Майер, Мириам Шор, Дэн Стивенс, Крис Роберти, Катя Бликфелд, Марисоль Миранда, Тихуана Рикс, Элайджа Гуо, Майкл Сирил Крайтон, Макс Дженкинс, Элен Йорк, Азар Кан, Лазарь Тверский и др.
Описание: Дружелюбный дилер марихуаны по прозвищу «Парень» каждый раз получает заказ от новых клиентов, которые страдают от всевозможных расстройств и с радостью посвящают в них своего поставщика.
Все раздачи | КиноПоиск | IMDb | Sample
<div class="post-box">Рекламы нет</div>
Качество: WEBRip
Формат: AVI
Видео: XviD, 704x400 (16:9), 23.976 fps, ~1500 kbps avg, 0.222 bit/pixel
Аудио: Russian 48.0 KHz, AC3, 2/0 (Front: L R) ch, ~192.00 kbps avg |Jimmy J.|
Субтитры: нет
Рип и работа со звуком - whip93.
General
Complete name : C:\Сериалы\High Maintenance - The Complete Series - whip93\The Complete 1st Season\High.Maintenance.S01E01.Meth(od).WEBRip.DD2.0.XviD.-whip93.avi
Format : AVI
Format/Info : Audio Video Interleave
File size : 402 MiB
Duration : 33mn 4s
Overall bit rate : 1 701 Kbps
Writing application : VirtualDubMod 1.5.10.3 | www.virtualdub-fr.org || (build 2550/release)
Writing library : VirtualDubMod build 2550/release

Video
ID : 0
Format : MPEG-4 Visual
Format profile : Advanced [email protected]
Format settings, BVOP : 1
Format settings, QPel : No
Format settings, GMC : No warppoints
Format settings, Matrix : Custom
Codec ID : XVID
Codec ID/Hint : XviD
Duration : 33mn 4s
Bit rate : 1 500 Kbps
Width : 704 pixels
Height : 400 pixels
Display aspect ratio : 16:9
Frame rate : 23.976 fps
Color space : YUV
Chroma subsampling : 4:2:0
Bit depth : 8 bits
Scan type : Progressive
Compression mode : Lossy
Bits/(Pixel*Frame) : 0.222
Stream size : 355 MiB (88%)
Writing library : XviD 67

Audio
ID : 1
Format : AC-3
Format/Info : Audio Coding 3
Mode extension : CM (complete main)
Format settings, Endianness : Big
Codec ID : 2000
Duration : 33mn 4s
Bit rate mode : Constant
Bit rate : 192 Kbps
Channel(s) : 2 channels
Channel positions : Front: L R
Sampling rate : 48.0 KHz
Compression mode : Lossy
Stream size : 45.4 MiB (11%)
Alignment : Split accross interleaves
Interleave, duration : 42 ms (1.00 video frame)
Interleave, preload duratio : 500 ms
Когда раздача ведётся путём добавления новых серий, при каждом добавлении создаётся новый торрент. Чтобы начать докачку новой серии, пользователям необходимо сделать следующее:
(1) остановить скачивание,
(2) удалить старый торрент у себя из клиента (старые серии удалять не надо),
(3) скачать новый торрент и запустить его у себя в клиенте вместо старого, при этом указать клиенту путь в старую папку, куда и должно происходить скачивание новых серий.
Ваш клиент при этом должен произвести хеширование (проверку) старой папки (если не производит сам - помогите ему сделать это), и будет докачивать только те серии, которых у вас ещё нет. Старые серии при этом не удаляются, а продолжают раздаваться!
Если вы уже удалили старые серии, то предотвратить повторную закачку старых серий можно, отжав галочку в соответствующих местах при запуске нового торрента. По возможности, желательно не удалять старые серии как можно дольше, чтобы релизер не столько продолжал раздавать старые серии, а смог сконцентрироваться на новых.



Трекер:  [ 13-Мар-2018 16:48 ]

  

Скачать .torrent

Размер .torrent файла 38 KB


Размер: 6.91 GB
Хэш (hash) релиза: 1d4e05269a43d057dcac128d39ea987a6756b8ee
Подписка на обновления:

Еще никто не оставлял запись к записи скачать торрент Кайф с доставкой High Maintenance . Будь первым!

!Обратная связь