Garrett Morris | LEER MAS | Amagi Brilliant Park

Скачать через торрент Оборотни Jin-Rou бесплатно Аниме Все серии на русском torrent

Статистика раздачи
Размер:  3.37 GB   |    Зарегистрирован:  3 месяца 6 дней   |    .torrent скачан:  47 раз   |   
Раздают:  1  
   
загрузка...
 
Автор Сообщение

Galfimbul

avatar Galfimbul


Оборотни / Jin-Rou / Волчья стая / Jin Roh: The Wolf Brigade

Страна: Япония
Год выпуска: 1999
Жанр: драма, триллер, фантастика
Тип: Movie
Продолжительность: 102 мин.
Режиссер: Окиура Хироюки
Студия: Production I.G

Описание: На одном из заданий спецназовец Фусэ из элитного "Бронеотряда Церберы" невольно становится причиной гибели юной террористки. Девушка взрывает себя у него на глазах. А вскоре он, казалось бы, случайно знакомится с её старшей сестрой, и у них начинается роман... Роман, похожий на страшную сказку о Красной Шапочке, старинную книгу с которой дарит Фусе его новая подруга. И с каждой прочитанной страницей мир вокруг них начинает меняться и рушиться. Водоворот событий - обман и неотличимая от обмана правда, предательство и политические интриги, сны и галлюцинации, хищники и жертвы - все вместе выплескивается в трагический финал, лишний раз доказывающий, что наиболее опасное из всех животных - человек.

- world-art - | - kinopoisk -

Возраст: 18+
Рейтинг MPAA: NC-17

Доп. информация: Сохранены оригинальные главы

Качество: BDRip
Тип релиза: Без хардсаба
Формат видео: MKV
Наличие линковки: Нет
Релиз/Автор рипа: TolstiyMob
Видео: x264, 1920x1080 (16:9), 23.976 fps, 4149 kbps, 8 bit
Аудио: AAC, 192 Kbps, 48.0Hz, 2 ch Язык Русский (в составе контейнера) ; Озвучка: многоголосая от MC Entertainment
Аудио 2: AAC, 192 Kbps, 48.0Hz, 2 ch Язык Русский (в составе контейнера) ; Озвучка 2: одноголосая (муж.) П. Гланца
Аудио 3: AAC, 192 Kbps, 48.0Hz, 2 ch Язык Японский ; Озвучка 3: Оригинальная
Субтитры: ASS встроенные в составе контейнера (Full) Язык субтитров русский ; Перевод: Сергея 'Nomad' Рыгина
ОбщееУникальный идентификатор : 185330562141142237720703928827598861072 (0x8B6D5E3040A2FF16B7A07C0F7D8FF310)Полное имя : [lev99] Jin Roh The Wolf Brigade [BDrip 1080p]\[lev99] Jin Roh The Wolf Brigade [BDrip 1920x1080 x264 AAC].mkvФормат : MatroskaВерсия формата : Version 4 / Version 2Размер файла : 3,37 ГбайтПродолжительность : 1 ч. 42 м.Общий поток : 4727 Кбит/секНазвание фильма : Jin Roh: The Wolf Brigade / 1999Дата кодирования : UTC 2018-03-13 07:50:11Программа кодирования : mkvmerge v21.0.0 ('Tardigrades Will Inherit The Earth') 64-bitБиблиотека кодирования : libebml v1.3.5 + libmatroska v1.4.8Обложка : YesAttachments : cover.jpg / BRUSHED_.TTF / BRUSH-N.TTF / 42503.ttf / ARABOLIC.TTF / Arabolical.ttf / Bengotbi.ttf / Bengothb.ttf / Bengothn.ttf / Bengotni.ttf / BRUSHED.TTF

ВидеоИдентификатор : 1Формат : AVCФормат/Информация : Advanced Video CodecПрофиль формата : [email protected]Настройки формата : CABAC / 4 Ref FramesПараметр CABAC формата : ДаПараметр RefFrames формата : 4 кадраИдентификатор кодека : V_MPEG4/ISO/AVCПродолжительность : 1 ч. 42 м.Битрейт : 4149 Кбит/секШирина : 1920 пикселейВысота : 1080 пикселейСоотношение сторон : 16:9Режим частоты кадров : ПостоянныйЧастота кадров : 23,976 (24000/1001) кадра/секЦветовое пространство : YUVСубдискретизация насыщенности : 4:2:0Битовая глубина : 8 битТип развёртки : ПрогрессивнаяБит/(Пиксели*Кадры) : 0.083Размер потока : 2,96 Гбайт (88%)Библиотека кодирования : x264 core 155 r2901 7d0ff22Настройки программы : cabac=1 / ref=4 / deblock=1:0:0 / analyse=0x3:0x133 / me=umh / subme=10 / psy=1 / psy_rd=1.00:0.00 / mixed_ref=1 / me_range=24 / chroma_me=1 / trellis=2 / 8x8dct=1 / cqm=0 / deadzone=21,11 / fast_pskip=1 / chroma_qp_offset=-2 / threads=18 / lookahead_threads=3 / sliced_threads=0 / nr=0 / decimate=1 / interlaced=0 / bluray_compat=0 / constrained_intra=0 / bframes=8 / b_pyramid=2 / b_adapt=2 / b_bias=0 / direct=3 / weightb=1 / open_gop=0 / weightp=2 / keyint=240 / keyint_min=23 / scenecut=4 / intra_refresh=0 / rc_lookahead=60 / rc=2pass / mbtree=1 / bitrate=4149 / ratetol=1.0 / qcomp=0.80 / qpmin=0 / qpmax=69 / qpstep=4 / cplxblur=20.0 / qblur=0.5 / vbv_maxrate=50000 / vbv_bufsize=62500 / nal_hrd=none / filler=0 / ip_ratio=1.40 / aq=1:1.00Язык : JapaneseDefault : ДаForced : НетЦветовой диапазон : LimitedОсновные цвета : BT.709Характеристики трансфера : BT.709Коэффициенты матрицы : BT.709

Аудио #1Идентификатор : 2Формат : AACФормат/Информация : Advanced Audio CodecПрофиль формата : LCИдентификатор кодека : A_AAC-2Продолжительность : 1 ч. 42 м.Битрейт : 192 Кбит/секКаналы : 2 каналаРасположение каналов : Front: L RЧастота : 48,0 КГцЧастота кадров : 46,875 кадров/сек (1024 SPF)Метод сжатия : С потерямиЗадержка видео : 21 мс.Размер потока : 140 Мбайт (4%)Заголовок : многоголосый, MC EntertainmentЯзык : RussianDefault : ДаForced : Нет

Аудио #2Идентификатор : 3Формат : AACФормат/Информация : Advanced Audio CodecПрофиль формата : LCИдентификатор кодека : A_AAC-2Продолжительность : 1 ч. 42 м.Битрейт : 192 Кбит/секКаналы : 2 каналаРасположение каналов : Front: L RЧастота : 48,0 КГцЧастота кадров : 46,875 кадров/сек (1024 SPF)Метод сжатия : С потерямиЗадержка видео : 21 мс.Размер потока : 140 Мбайт (4%)Заголовок : одноголосый, ГланцЯзык : RussianDefault : НетForced : Нет

Аудио #3Идентификатор : 4Формат : AACФормат/Информация : Advanced Audio CodecПрофиль формата : LCИдентификатор кодека : A_AAC-2Продолжительность : 1 ч. 42 м.Битрейт : 192 Кбит/секКаналы : 2 каналаРасположение каналов : Front: L RЧастота : 48,0 КГцЧастота кадров : 46,875 кадров/сек (1024 SPF)Метод сжатия : С потерямиЗадержка видео : 21 мс.Размер потока : 140 Мбайт (4%)Язык : JapaneseDefault : НетForced : Нет

ТекстИдентификатор : 5Формат : ASSИдентификатор кодека : S_TEXT/ASSИдентификатор кодека/Информация : Advanced Sub Station AlphaПродолжительность : 1 ч. 36 м.Битрейт : 90 бит/секElementCount : 786Метод сжатия : Без потерьРазмер потока : 64,0 Кбайт (0%)Язык : RussianDefault : НетForced : Нет

Меню00:00:00.000 : en:00:00:00.00000:03:30.210 : en:00:03:30.21000:16:32.992 : en:00:16:32.99200:21:11.437 : en:00:21:11.43700:23:44.673 : en:00:23:44.67300:26:50.651 : en:00:26:50.65100:29:25.764 : en:00:29:25.76400:31:15.040 : en:00:31:15.04000:33:49.903 : en:00:33:49.90300:41:24.982 : en:00:41:24.98200:49:00.396 : en:00:49:00.39600:53:06.225 : en:00:53:06.22501:02:53.520 : en:01:02:53.52001:10:34.605 : en:01:10:34.60501:18:24.742 : en:01:18:24.74201:23:46.730 : en:01:23:46.73001:32:00.265 : en:01:32:00.26501:36:42.130 : en:01:36:42.130
Оборотни / Jin Roh: The Wolf Brigade / Jin-Roh (Окиура Хироюки) [Movie] [без хардсаба] [RUS(int), ENG, JAP+SUB] [2000, драма, триллер, фантастика, BDRemux] [1080p]
...3902395
- там

Оборотни / Jin-Rou / Jin Roh: The Wolf Brigade [Movie] [1 из 1] [Без хардсаба] [RUS(int), JAP+SUB] [1999, драма, триллер, фантастика, BDRip] [1080p]
- мой


Трекер:  [ 13-Мар-2018 12:30 ]

  

Скачать .torrent

Размер .torrent файла 17 KB


Размер: 3.37 GB
Хэш (hash) релиза: eb7d7d0144d0d6c5cb2ec9f855352a5f4ee81b71
Подписка на обновления:

Торренты, похожие на Оборотни Jin-Rou скачать торрент

Форум Название Автор Размер S L Добавлен
Аниме | HD Rips ·· Оборотни / Jin-Rou / Jin Roh: The Wolf Brigade (Окиура Хироюки) [Movie] [без хардсаба] [RUS(ext), ENG, JAP+SUB] [2000 г., драма, триллер, фантастика, BDRip] [720p] Galfimbul 63389738165.9 GB 0 0 1458321563

20:19

18-Мар-16

Еще никто не оставлял запись к записи скачать торрент Оборотни Jin-Rou . Будь первым!

!Обратная связь