Darker - Cinquante nuances plus sombres par Christian | Phu Khong Yod Rak | You Light Up My Star

Скачать через торрент Обратный отсчёт Серии: 1-2 из 16 Фильм бесплатно в хорошем качестве torrent

Скачивайте на UnionPeer.org фильмы через торрент без регистрации. Новинки кино в хорошем качестве через торрент. На UnionPeer.org можно скачать через торрент фильмы 2014 и 2015 годов. Самые новые фильмы.

Скачать торрент Обратный отсчёт Серии: 1-2 из 16 бесплатно через .torrent фильм мультфильм сериал

Статистика раздачи
Размер:  4.14 GB   |    Зарегистрирован:  4 месяца 4 дня   |    .torrent скачан:  46 раз   |   
Раздают:  1  
   
загрузка...
 
Автор Сообщение

Galfimbul

avatar Galfimbul


Обратный отсчёт

Год выпуска: 2017
Производство: Всемирные Русские Студии
Жанр: детектив
Продолжительность: ~00:48:00 серия
Субтитры: нет

Режиссёр: Сергей Попов, Дмитрий Аверин, Максим Кубринский

В ролях: Юрий Колокольников, Полина Максимова, Алексей Ведерников , Анастасия Лазо, Дмитрий Воробьёв , Виктор Рыбчинский, Кира Кауфман, Юлия Шахмуратова, Владимир Трезубов, Анастасия Кипина, Сергей Воробьёв , Дмитрий Гудим, Пауль Орлански, Игорь Грабузов

Описание: Константин Корсаков ведёт запутанные уголовные дела. Он хладнокровен и беспощаден к самому себе. Каждый день Корсаков имеет дело с жертвами злоумышленников, которые во что бы то ни стало хотят отомстить своим обидчикам. Корсакову нужно предотвратить новые преступления и удержать пострадавших от непоправимых ошибок. В этом ему помогают коллеги: старшие лейтенанты Инга Гордеева, Макс Лобов и лейтенант Люся Алёхина.

Реклама: Нет.

Все раздачи сериала
Sample

Качество: WEBRip 1080p - Nikolspup
Формат: MKV
Видео кодек: H.264
Аудио кодек: AC3
Видео: MPEG4 AVC Video, H264, 16:9, 1920x1080, 25 fps, ~6000 kbps, 0.116 bit/pixel
Аудио: AC3 Dolby Digital, 48.0 kHz, 2/0 (L,R) ch, 192 kbps
Раздача ведётся путём добавления новых серий, при каждом добавлении создаётся новый торрент. Чтобы начать докачку новой серии, пользователям необходимо сделать следующее:

- Остановить скачивание.
- Удалить старый торрент у себя из клиента (старые серии удалять не надо).
- Скачать новый торрент и запустить его у себя в клиенте вместо старого, при этом указать клиенту путь в старую папку куда и должно происходить скачивание новых серий.

Ваш клиент при этом должен произвести хеширование (проверку) старой папки (если не производит сам - помогите ему сделать это), и будет докачивать только те серии которых у вас ещё нет. Старые серии при этом не удаляются, а продолжают раздаваться!
Если вы уже удалили старые серии, то предотвратить повторную закачку старых серий можно, отжав галочку в соответствующих местах при запуске нового торрента. По возможности, желательно не удалять старые серии как можно дольше, чтобы релизер не столько продолжал раздавать старые серии, а смог сконцентрироваться на новых.
General
Unique ID : 207429390784719060205524088743542218177 (0x9C0D728FBDF54422B424E2A9E5315DC1)
Complete name : D:\Obratnyy.otschet.2017.WEB-DL.(1080p).Nikolspup\Obratnyy.otschet.(01.seriya).2017.WEB-DL.(1080p).Nikolspup.mkv
Format : Matroska
Format version : Version 4 / Version 2
File size : 2.07 GiB
Duration : 48mn 0s
Overall bit rate mode : Constant
Overall bit rate : 6 170 Kbps
Encoded date : UTC 2018-03-12 19:54:27
Writing application : mkvmerge v7.8.0 ('River Man') 32bit built on Mar 27 2015 16:18:02
Writing library : libebml v1.3.1 + libmatroska v1.4.2
DURATION : 00:48:00.000000000
NUMBER_OF_FRAMES : 90000
NUMBER_OF_BYTES : 69120000
_STATISTICS_WRITING_APP : mkvmerge v7.8.0 ('River Man') 32bit built on Mar 27 2015 16:18:02
_STATISTICS_WRITING_DATE_UTC : 2018-03-12 19:54:27
_STATISTICS_TAGS : BPS DURATION NUMBER_OF_FRAMES NUMBER_OF_BYTES

Video
ID : 1
Format : AVC
Format/Info : Advanced Video Codec
Format profile : [email protected]
Format settings, CABAC : No
Format settings, ReFrames : 2 frames
Codec ID : V_MPEG4/ISO/AVC
Duration : 48mn 0s
Bit rate mode : Constant
Bit rate : 6 000 Kbps
Width : 1 920 pixels
Height : 1 080 pixels
Display aspect ratio : 16:9
Frame rate mode : Constant
Frame rate : 25.000 fps
Standard : PAL
Color space : YUV
Chroma subsampling : 4:2:0
Bit depth : 8 bits
Scan type : Progressive
Bits/(Pixel*Frame) : 0.116
Stream size : 1.96 GiB (95%)
Default : No
Forced : No
Color primaries : BT.709
Transfer characteristics : BT.709
Matrix coefficients : BT.709

Audio
ID : 2
Format : AC-3
Format/Info : Audio Coding 3
Mode extension : CM (complete main)
Format settings, Endianness : Big
Codec ID : A_AC3
Duration : 48mn 0s
Bit rate mode : Constant
Bit rate : 192 Kbps
Channel count : 2 channels
Channel positions : Front: L R
Sampling rate : 48.0 KHz
Bit depth : 16 bits
Compression mode : Lossy
Stream size : 65.9 MiB (3%)
Language : Russian
Default : Yes
Forced : Yes


Трекер:  [ 13-Мар-2018 11:42 ]

  

Скачать .torrent

Размер .torrent файла 21 KB


Размер: 4.14 GB
Хэш (hash) релиза: 17acbed3908df8baf56a49be099bc7bf8e4da37d
Подписка на обновления:

Торренты, похожие на Обратный отсчёт Серии: 1-2 из 16 скачать торрент

Форум Название Автор Размер S L Добавлен
Российские сериалы ·· Обратный отсчёт / Серии: 1-2 из 16 (Сергей Попов, Дмитрий Аверин, Максим Кубринский) [2017, детектив, HDTVRip] Galfimbul 12570603521.17 GB 0 0 1520930573

11:42

13-Мар-18

Еще никто не оставлял запись к записи скачать торрент Обратный отсчёт Серии: 1-2 из 16 . Будь первым!

!Обратная связь