999 Nụ Hôn Bá Đạo Của Nam Thần – Chap 107 | Apowersoft Phone Manager V.2.8.9 | Lovely Moments - Project for After Effects (Pond5)

Скачать через торрент Обратный отсчёт Серии: 1-2 из 16 Фильм бесплатно в хорошем качестве torrent

Скачивайте на UnionPeer.org фильмы через торрент без регистрации. Новинки кино в хорошем качестве через торрент. На UnionPeer.org можно скачать через торрент фильмы 2014 и 2015 годов. Самые новые фильмы.

Скачать торрент Обратный отсчёт Серии: 1-2 из 16 бесплатно через .torrent фильм мультфильм сериал

Статистика раздачи
Размер:  1.17 GB   |    Зарегистрирован:  5 месяцев 4 дня   |    .torrent скачан:  36 раз   |   
Раздают:  1  
   
загрузка...
 
Автор Сообщение

Galfimbul

avatar Galfimbul


Обратный отсчёт

Год выпуска: 2017
Производство: Всемирные Русские Студии
Жанр: детектив
Продолжительность: ~00:48:00 серия
Субтитры: нет

Режиссёр: Сергей Попов, Дмитрий Аверин, Максим Кубринский

В ролях: Юрий Колокольников, Полина Максимова, Алексей Ведерников , Анастасия Лазо, Дмитрий Воробьёв , Виктор Рыбчинский, Кира Кауфман, Юлия Шахмуратова, Владимир Трезубов, Анастасия Кипина, Сергей Воробьёв , Дмитрий Гудим, Пауль Орлански, Игорь Грабузов

Описание: Константин Корсаков ведёт запутанные уголовные дела. Он хладнокровен и беспощаден к самому себе. Каждый день Корсаков имеет дело с жертвами злоумышленников, которые во что бы то ни стало хотят отомстить своим обидчикам. Корсакову нужно предотвратить новые преступления и удержать пострадавших от непоправимых ошибок. В этом ему помогают коллеги: старшие лейтенанты Инга Гордеева, Макс Лобов и лейтенант Люся Алёхина.

Реклама: Нет.

Все раздачи сериала
Sample

Качество: HDTVRip - Files-x
Формат: AVI
Видео кодек: XviD
Аудио кодек: AC3
Видео: 720x400 (1.80:1), 25 fps, XviD build 73 ~1560 kbps avg, 0.217 bit/pixel
Аудио: 48.0 kHz, AC3 Dolby Digital, 2/0 (L,R) ch, ~ 192 kbps
Раздача ведётся путём добавления новых серий, при каждом добавлении создаётся новый торрент. Чтобы начать докачку новой серии, пользователям необходимо сделать следующее:

- Остановить скачивание.
- Удалить старый торрент у себя из клиента (старые серии удалять не надо).
- Скачать новый торрент и запустить его у себя в клиенте вместо старого, при этом указать клиенту путь в старую папку куда и должно происходить скачивание новых серий.

Ваш клиент при этом должен произвести хеширование (проверку) старой папки (если не производит сам - помогите ему сделать это), и будет докачивать только те серии которых у вас ещё нет. Старые серии при этом не удаляются, а продолжают раздаваться!
Если вы уже удалили старые серии, то предотвратить повторную закачку старых серий можно, отжав галочку в соответствующих местах при запуске нового торрента. По возможности, желательно не удалять старые серии как можно дольше, чтобы релизер не столько продолжал раздавать старые серии, а смог сконцентрироваться на новых.
General
Complete name : D:\Обратный отсчет.2017.HDTVRip.Files-x\01.Обратный отсчет.2017.HDTVRip.Files-x.avi
Format : AVI
Format/Info : Audio Video Interleave
File size : 599 MiB
Duration : 47mn 33s
Overall bit rate : 1 761 Kbps
Writing application : VirtualDubMod 1.5.10.3 | www.virtualdub-fr.org || (build 2550/release)
Writing library : VirtualDubMod build 2550/release

Video
ID : 0
Format : MPEG-4 Visual
Format profile : Advanced [email protected]
Format settings, BVOP : 1
Format settings, QPel : No
Format settings, GMC : No warppoints
Format settings, Matrix : Custom
Codec ID : XVID
Codec ID/Hint : XviD
Duration : 47mn 33s
Bit rate : 1 559 Kbps
Width : 720 pixels
Height : 400 pixels
Display aspect ratio : 16:9
Frame rate : 25.000 fps
Color space : YUV
Chroma subsampling : 4:2:0
Bit depth : 8 bits
Scan type : Progressive
Compression mode : Lossy
Bits/(Pixel*Frame) : 0.217
Stream size : 530 MiB (89%)
Writing library : XviD 73

Audio
ID : 1
Format : AC-3
Format/Info : Audio Coding 3
Mode extension : CM (complete main)
Format settings, Endianness : Big
Codec ID : 2000
Duration : 47mn 33s
Bit rate mode : Constant
Bit rate : 192 Kbps
Channel count : 2 channels
Channel positions : Front: L R
Sampling rate : 48.0 KHz
Bit depth : 16 bits
Compression mode : Lossy
Stream size : 65.3 MiB (11%)
Alignment : Split accross interleaves
Interleave, duration : 40 ms (1.00 video frame)
Interleave, preload duration : 500 ms


Трекер:  [ 13-Мар-2018 11:42 ]

  

Скачать .torrent

Размер .torrent файла 12 KB


Размер: 1.17 GB
Хэш (hash) релиза: 5df22a027cd61d9bdf8d3259af43f72ab2aaff81
Подписка на обновления:

Торренты, похожие на Обратный отсчёт Серии: 1-2 из 16 скачать торрент

Форум Название Автор Размер S L Добавлен
Российские сериалы ·· Обратный отсчёт / Серии: 1-2 из 16 (Сергей Попов, Дмитрий Аверин, Максим Кубринский) [2017, детектив, WEBRip 1080p] Galfimbul 44443196224.14 GB 0 0 1520930583

11:43

13-Мар-18

Еще никто не оставлял запись к записи скачать торрент Обратный отсчёт Серии: 1-2 из 16 . Будь первым!

!Обратная связь