SWAT HDTV | Lord Snow season 01 episode 03 | Robin Hood (Anime)

Скачать через торрент Реальные пацаны Сезон: 10 Фильм бесплатно в хорошем качестве torrent

Скачивайте на UnionPeer.org фильмы через торрент без регистрации. Новинки кино в хорошем качестве через торрент. На UnionPeer.org можно скачать через торрент фильмы 2014 и 2015 годов. Самые новые фильмы.

Скачать торрент Реальные пацаны Сезон: 10 бесплатно через .torrent фильм мультфильм сериал

Статистика раздачи
Размер:  10.51 GB   |    Зарегистрирован:  3 месяца 18 дней   |    .torrent скачан:  566 раз   |   
Раздают:  1  
   
загрузка...
 
Автор Сообщение

Galfimbul

avatar Galfimbul


Реальные пацаны

Год выпуска: 2018
Производство: Гуд Стори Медиа
Жанр: комедия
Продолжительность: ~00:24:00 серия
Субтитры: нет

Режиссёр: Жанна Кадникова

В ролях: Николай Наумов, Зоя Бербер, Антон Богданов, Владимир Селиванов, Станислав Тляшев, Мария Скорницкая, Валентина Мазунина, Марина Федункив, Армен Бежанян, Игорь Ознобихин, Алексей Базанов, Анастасия Плоскова, Сергей Ершов, Татьяна Ронзина, Любовь Рудометова, Юлия Гришнина, Михаил Чуднов, Юрий Богомолов, Василий Бичев, Анна Шепелева

Описание: Пермяки становятся реальными знаменитостями: их узнают на улицах, у них берут автографы, с ними делают селфи, приглашают на днюхи и бесконечно просят повторить легендарное «так-то». С подачи небезызвестной Олеси Геннадьевны (та самая, что сделала из Коляна депутата) коллектив «Реальных пацанов» отправляется в большой концертный тур по стране. В программе: лайфхаки от Антохи, рэп от Вована и танцы от Коляна. Суперзвезд ждут в Санкт-Петербурге, Новосибирске, Екатеринбурге, Нижнем Новгороде, Казани, Челябинске, Омске, Самаре и еще в сотнях городов, сел и деревень России. Но кого пермяки обманывают? Суперзвезды для всей России, в своем мире вечного пермского периода Колян, Вован и Антоха по-прежнему простые пацаны с городских окраин. Даже когда слава того гляди снесет им крышу, пацаны делают вид, что ничего не изменилось. Но надолго ли их хватит? В новом сезоне пацанов ждет испытание славой, а значит их дружба и отношения с близкими пройдут самую серьезную проверку.

Реклама: Нет.



Sample

Качество: HDTVRip 720p - Nikolspup
Формат: MKV
Видео кодек: H.264
Аудио кодек: AC3
Видео: MPEG4 AVC Video, H264, 16:9, 1280x720, 25 fps, ~4000 kbps, 0.174 bit/pixel
Аудио: AC3 Dolby Digital, 48 kHz, 2/0 (L,R) ch, 192 kbp
Раздача ведётся путём добавления новых серий, при каждом добавлении создаётся новый торрент. Чтобы начать докачку новой серии, пользователям необходимо сделать следующее:

- Остановить скачивание.
- Удалить старый торрент у себя из клиента (старые серии удалять не надо).
- Скачать новый торрент и запустить его у себя в клиенте вместо старого, при этом указать клиенту путь в старую папку куда и должно происходить скачивание новых серий.

Ваш клиент при этом должен произвести хеширование (проверку) старой папки (если не производит сам - помогите ему сделать это), и будет докачивать только те серии которых у вас ещё нет. Старые серии при этом не удаляются, а продолжают раздаваться!
Если вы уже удалили старые серии, то предотвратить повторную закачку старых серий можно, отжав галочку в соответствующих местах при запуске нового торрента. По возможности, желательно не удалять старые серии как можно дольше, чтобы релизер не столько продолжал раздавать старые серии, а смог сконцентрироваться на новых.
General
Unique ID : 245078282465751260398423005167713082557 (0xB8605C3C185811BF968A805D06A95CBD)
Complete name : D:\Realnye.pacany.s10.HDTVRip.(720p).Nikolspup\Realnye.pacany.s10.(01.seriya).HDTVRip.(720p).Nikolspup.mkv
Format : Matroska
Format version : Version 4 / Version 2
File size : 713 MiB
Duration : 23mn 47s
Overall bit rate : 4 191 Kbps
Encoded date : UTC 2018-03-12 19:16:32
Writing application : mkvmerge v7.8.0 ('River Man') 32bit built on Mar 27 2015 16:18:02
Writing library : libebml v1.3.1 + libmatroska v1.4.2
DURATION : 00:23:47.904000000
NUMBER_OF_FRAMES : 44622
NUMBER_OF_BYTES : 34269696
_STATISTICS_WRITING_APP : mkvmerge v7.8.0 ('River Man') 32bit built on Mar 27 2015 16:18:02
_STATISTICS_WRITING_DATE_UTC : 2018-03-12 19:16:32
_STATISTICS_TAGS : BPS DURATION NUMBER_OF_FRAMES NUMBER_OF_BYTES

Video
ID : 1
Format : AVC
Format/Info : Advanced Video Codec
Format profile : [email protected]
Format settings, CABAC : Yes
Format settings, ReFrames : 9 frames
Codec ID : V_MPEG4/ISO/AVC
Duration : 23mn 47s
Bit rate : 4 000 Kbps
Width : 1 280 pixels
Height : 720 pixels
Display aspect ratio : 16:9
Frame rate mode : Constant
Frame rate : 25.000 fps
Color space : YUV
Chroma subsampling : 4:2:0
Bit depth : 8 bits
Scan type : Progressive
Bits/(Pixel*Frame) : 0.174
Stream size : 666 MiB (93%)
Writing library : x264 core 146 r2538 121396c
Encoding settings : cabac=1 / ref=9 / deblock=1:-2:-1 / analyse=0x3:0x133 / me=umh / subme=9 / psy=1 / psy_rd=1.00:0.20 / mixed_ref=1 / me_range=32 / chroma_me=1 / trellis=2 / 8x8dct=1 / cqm=0 / deadzone=21,11 / fast_pskip=1 / chroma_qp_offset=-3 / threads=16 / lookahead_threads=8 / sliced_threads=0 / nr=0 / decimate=1 / interlaced=0 / bluray_compat=0 / constrained_intra=0 / bframes=11 / b_pyramid=2 / b_adapt=2 / b_bias=0 / direct=1 / weightb=1 / open_gop=0 / weightp=2 / keyint=250 / keyint_min=25 / scenecut=40 / intra_refresh=0 / rc=2pass / mbtree=0 / bitrate=4000 / ratetol=1.0 / qcomp=0.60 / qpmin=0 / qpmax=69 / qpstep=4 / cplxblur=20.0 / qblur=0.5 / ip_ratio=1.40 / pb_ratio=1.30 / aq=3:1.00
Default : No
Forced : No
DURATION : 00:23:47.880000000
NUMBER_OF_FRAMES : 35697
NUMBER_OF_BYTES : 713405074
_STATISTICS_WRITING_APP : mkvmerge v7.8.0 ('River Man') 32bit built on Mar 27 2015 16:18:02
_STATISTICS_WRITING_DATE_UTC : 2018-03-12 19:16:32
_STATISTICS_TAGS : BPS DURATION NUMBER_OF_FRAMES NUMBER_OF_BYTES
Color primaries : BT.709
Transfer characteristics : BT.709
Matrix coefficients : BT.709

Audio
ID : 2
Format : AC-3
Format/Info : Audio Coding 3
Mode extension : CM (complete main)
Format settings, Endianness : Big
Codec ID : A_AC3
Duration : 23mn 47s
Bit rate mode : Constant
Bit rate : 192 Kbps
Channel count : 2 channels
Channel positions : Front: L R
Sampling rate : 48.0 KHz
Bit depth : 16 bits
Compression mode : Lossy
Stream size : 32.7 MiB (5%)
Language : Russian
Default : Yes
Forced : Yes


Трекер:  [ 30-Мар-2018 10:02 ]

  

Скачать .torrent

Размер .torrent файла 54 KB


Размер: 10.51 GB
Хэш (hash) релиза: 247b1100cdcbe341a9a81c5657766a4b74a538c4
Подписка на обновления:

Торренты, похожие на Реальные пацаны Сезон: 10 скачать торрент

Форум Название Автор Размер S L Добавлен
Российские сериалы ·· Реальные пацаны / Сезон: 10 / Серии: 1-16 из 16 (Жанна Кадникова) [2018, Комедия, HDTV 1080i] Galfimbul 2053643426819.13 GB 0 0 1522847579

16:12

4-Апр-18

Российские сериалы ·· Реальные пацаны / Сезон: 10 / Серии: 1-16 из 16 (Жанна Кадникова) [2018, комедия, HDTVRip-AVC] Galfimbul 59032641905.5 GB 0 0 1520928749

11:12

13-Мар-18

Российские сериалы ·· Реальные пацаны (10 сезон: 1-16 серии из 20) (Жанна Кадникова) [2018, комедия, WEBRip] Galfimbul 51297894404.78 GB 0 0 1520928775

11:12

13-Мар-18

bot

Раздача обновлена!
Перекачайте торрент-файл.

bot

Раздача обновлена!
Перекачайте торрент-файл.

bot

Раздача обновлена!
Перекачайте торрент-файл.

bot

Раздача обновлена!
Перекачайте торрент-файл.

bot

Раздача обновлена!
Перекачайте торрент-файл.

bot

Раздача обновлена!
Перекачайте торрент-файл.

bot

Раздача обновлена!
Перекачайте торрент-файл.

bot

Раздача обновлена!
Перекачайте торрент-файл.

bot

Раздача обновлена!
Перекачайте торрент-файл.

Хотите добавить комментарий к записи скачать торрент Реальные пацаны Сезон: 10

!Обратная связь