Bernard M. Baruch | 211 (2018) Hindi Dubbed ENG Full Movei 300MB DVDRip 480p | Jack Lambert

Скачать через торрент Осколки Серии: 1-2 из 16 Фильм бесплатно в хорошем качестве torrent

Скачивайте на UnionPeer.org фильмы через торрент без регистрации. Новинки кино в хорошем качестве через торрент. На UnionPeer.org можно скачать через торрент фильмы 2014 и 2015 годов. Самые новые фильмы.

Скачать торрент Осколки Серии: 1-2 из 16 бесплатно через .torrent фильм мультфильм сериал

Статистика раздачи
Размер:  1.27 GB   |    Зарегистрирован:  3 месяца 6 дней   |    .torrent скачан:  34 раза   |   
Раздают:  1  
   
загрузка...
 
Автор Сообщение

Galfimbul

avatar Galfimbul


Осколки

Год выпуска: 2017
Производство: ВайТ Медиа
Жанр: мелодрама, драма
Продолжительность: ~00:51:00 серия
Субтитры: нет

Режиссёр: Владимир Нахабцев мл.

В ролях: Наталия Антонова, Александр Дьяченко, Татьяна Черкасова, Валерия Бурдужа, Аглая Тарасова, Анна Дулова, Кира Кауфман, Дмитрий Пчела, Ольга Миропольская, Алексей Одинг

Описание: В семье известного бизнесмена Олега Прокопьева скандал: младшая дочь Варвара не является родной ни ему, ни его жене Анне. Выясняется, что медсестра в роддоме перепутала детей, чьи фамилии отличались всего на одну букву: одновременно с Варварой Прокопьевой на свет появилась Александра Прокофьева. Спустя 15 лет правда открывается, и судьба сталкивает Олега с Марией, матерью Александры. Перед обеими семьями встает вопрос — как быть дальше? Героям придется пройти через множество испытаний, выбирая между долгом и тем, что велит сердце, сталкиваясь с трудностями и неожиданностями, переживая возвращение старых проблем и справляясь с некстати разгорающимися чувствами.

Реклама: Нет.

Кинопоиск
Все раздачи сериала
Sample

Качество: HDTVRip - Files-x
Формат: AVI
Видео кодек: XviD
Аудио кодек: AC3
Видео: 720x400 (1.80:1), 25 fps, XviD build 73 ~1550 kbps avg, 0.218 bit/pixel
Аудио: 48.0 kHz, AC3 Dolby Digital, 2/0 (L,R) ch, ~ 192 kbps
Раздача ведётся путём добавления новых серий, при каждом добавлении создаётся новый торрент. Чтобы начать докачку новой серии, пользователям необходимо сделать следующее:

- Остановить скачивание.
- Удалить старый торрент у себя из клиента (старые серии удалять не надо).
- Скачать новый торрент и запустить его у себя в клиенте вместо старого, при этом указать клиенту путь в старую папку куда и должно происходить скачивание новых серий.

Ваш клиент при этом должен произвести хеширование (проверку) старой папки (если не производит сам - помогите ему сделать это), и будет докачивать только те серии которых у вас ещё нет. Старые серии при этом не удаляются, а продолжают раздаваться!
Если вы уже удалили старые серии, то предотвратить повторную закачку старых серий можно, отжав галочку в соответствующих местах при запуске нового торрента. По возможности, желательно не удалять старые серии как можно дольше, чтобы релизер не столько продолжал раздавать старые серии, а смог сконцентрироваться на новых.
General
Complete name : D:\Oskolki.2017.HDTVRip.Files-x\01.Oskolki.2017.HDTVRip.Files-x.avi
Format : AVI
Format/Info : Audio Video Interleave
File size : 649 MiB
Duration : 51mn 19s
Overall bit rate : 1 768 Kbps
Writing application : VirtualDubMod 1.5.10.3 | www.virtualdub-fr.org || (build 2550/release)
Writing library : VirtualDubMod build 2550/release

Video
ID : 0
Format : MPEG-4 Visual
Format profile : Advanced [email protected]
Format settings, BVOP : 1
Format settings, QPel : No
Format settings, GMC : No warppoints
Format settings, Matrix : Custom
Codec ID : XVID
Codec ID/Hint : XviD
Duration : 51mn 19s
Bit rate : 1 566 Kbps
Width : 720 pixels
Height : 400 pixels
Display aspect ratio : 16:9
Frame rate : 25.000 fps
Color space : YUV
Chroma subsampling : 4:2:0
Bit depth : 8 bits
Scan type : Progressive
Compression mode : Lossy
Bits/(Pixel*Frame) : 0.218
Stream size : 575 MiB (89%)
Writing library : XviD 73

Audio
ID : 1
Format : AC-3
Format/Info : Audio Coding 3
Mode extension : CM (complete main)
Format settings, Endianness : Big
Codec ID : 2000
Duration : 51mn 19s
Bit rate mode : Constant
Bit rate : 192 Kbps
Channel count : 2 channels
Channel positions : Front: L R
Sampling rate : 48.0 KHz
Bit depth : 16 bits
Compression mode : Lossy
Stream size : 70.5 MiB (11%)
Alignment : Split accross interleaves
Interleave, duration : 40 ms (1.00 video frame)
Interleave, preload duration : 500 ms


Трекер:  [ 13-Мар-2018 10:42 ]

  

Скачать .torrent

Размер .torrent файла 13 KB


Размер: 1.27 GB
Хэш (hash) релиза: dfd84282204aaa0afabfbf365dd0717d2c7f6d7d
Подписка на обновления:

Еще никто не оставлял запись к записи скачать торрент Осколки Серии: 1-2 из 16 . Будь первым!

!Обратная связь