999 Nụ Hôn Bá Đạo Của Nam Thần – Chap 107 | Apowersoft Phone Manager V.2.8.9 | Lovely Moments - Project for After Effects (Pond5)

Скачать через торрент Джессика Джонс Marvel’s Jessica Jones Фильм бесплатно в хорошем качестве torrent

Скачивайте на UnionPeer.org фильмы через торрент без регистрации. Новинки кино в хорошем качестве через торрент. На UnionPeer.org можно скачать через торрент фильмы 2014 и 2015 годов. Самые новые фильмы.

Скачать торрент Джессика Джонс Marvel’s Jessica Jones бесплатно через .torrent фильм мультфильм сериал

Статистика раздачи
Размер:  7.02 GB   |    Зарегистрирован:  5 месяцев 6 дней   |    .torrent скачан:  37 раз   |   
Раздают:  1  
   
загрузка...
 
Автор Сообщение

Galfimbul

avatar Galfimbul


Джессика Джонс / Marvel’s Jessica Jones

Год выпуска: 2018
Страна: США
Жанр: фантастика, боевик, триллер, драма, криминал
Продолжительность: 00:54:00

Перевод: Профессиональный (двухголосый закадровый) [Gears Media]

Режиссёр: Мелисса Розенберг / Melissa Rosenberg
В ролях: Кристен Риттер, Рэйчел Тейлор, Ика Дэрвилл, Дж.Р. Рамирез, Кэрри-Энн Мосс, Дэвид Теннант и др.

Описание: Не так давно Джессика Джонс была супергероем, но ее недолгое пребывание в этой роли закончилось трагедией. Сейчас она восстанавливает свою личную жизнь и карьеру вспыльчивого, язвительного и задиристого частного детектива в Адской Кухне. Джессика пытается преодолеть ненависть к себе и справиться с посттравматическим стрессом, а также борется с внутренними и внешними демонами. А свои экстраординарные способности она использует для защиты тех, кто в ней нуждается, особенно если они могут заплатить за это.

Ссылка на предыдущие и альтернативные раздачи: http://rutracker.org/forum/tracker.php?g=foreign_se...=Jessica%20Jones

Сэмпл: http://multi-up.com/1190596

Качество: WEB-DLRip
Формат: AVI
Видео: XviD, 720x400 at 23.976 fps, ~1200 kbps avg
Аудио1: Russian, MP3, 48 kHz, 2 ch, 128 kbps
Аудио2: English, MP3, 48 kHz, 2 ch, 128 kbps
Субтитры: нет
Реклама: аудио (два раза, в начале и конце, по 12 сек.)
Format : AVI
Format/Info : Audio Video Interleave
File size : 572 MiB
Duration : 53 min 55 s
Overall bit rate : 1 483 kb/s
Writing application : Lavf56.30.100

Video
ID : 0
Format : xvid
Codec ID : xvid
Duration : 53 min 55 s
Bit rate : 1 210 kb/s
Width : 720 pixels
Height : 400 pixels
Display aspect ratio : 16:9
Frame rate : 23.976 (24000/1001) FPS
Scan type : Progressive
Bits/(Pixel*Frame) : 0.175
Stream size : 467 MiB (82%)

Audio #1
ID : 1
Format : MPEG Audio
Format version : Version 1
Format profile : Layer 3
Mode : Joint stereo
Mode extension : MS Stereo
Codec ID : 55
Codec ID/Hint : MP3
Duration : 53 min 4 s
Bit rate mode : Constant
Bit rate : 128 kb/s
Channel(s) : 2 channels
Sampling rate : 48.0 kHz
Compression mode : Lossy
Stream size : 48.6 MiB (8%)
Alignment : Aligned on interleaves
Interleave, duration : 24 ms (0.58 video frame)
Interleave, preload duratio : 24 ms
Title : Gears Media
Writing library : LAME3.99.5ЄЄЄЄЄЄЄЄЄЄ

Audio #2
ID : 2
Format : MPEG Audio
Format version : Version 1
Format profile : Layer 3
Mode : Joint stereo
Mode extension : MS Stereo
Codec ID : 55
Codec ID/Hint : MP3
Duration : 53 min 4 s
Bit rate mode : Constant
Bit rate : 128 kb/s
Channel(s) : 2 channels
Sampling rate : 48.0 kHz
Compression mode : Lossy
Stream size : 48.6 MiB (8%)
Alignment : Aligned on interleaves
Interleave, duration : 24 ms (0.58 video frame)
Interleave, preload duratio : 24 ms
<div class="sp-wrap">
<div class="sp-head folded">Внимание! Раздача ведётся путём добавления новых серий</div>
<div class="sp-body">[b]Внимание! Раздача ведётся путём добавления новых серий; при каждом добавлении создаётся новый торрент. Чтобы начать докачку новой серии, пользователям необходимо сделать следующее:
(1) остановить скачивание,
(2) удалить старый торрент у себя из клиента (старые серии удалять не надо),
(3) скачать новый торрент и запустить его у себя в клиенте вместо старого, при этом указать клиенту путь в старую папку куда и должно происходить скачивание новых серий.

Eсли вы уже удалили старые серии, то предотвратить повторную закачку старых серий можно, отжав галочку в соответствующих местах при запуске нового торрента. По возможности, желательно не удалять старые серии как можно дольше чтобы релизёр не столько продолжал раздавать старые серии, а смог сконцентрироваться на новых.</div>
</div>

Трекер:  [ 13-Мар-2018 09:48 ]

  

Скачать .torrent

Размер .torrent файла 19 KB


Размер: 7.02 GB
Хэш (hash) релиза: 615a129e56811af5d1989c8d252f818cdc071c7f
Подписка на обновления:

Торренты, похожие на Джессика Джонс Marvel’s Jessica Jones скачать торрент

Форум Название Автор Размер S L Добавлен
Зарубежные сериалы ·· Джессика Джонс / Marvel's Jessica Jones / Сезон: 2 / Серии: 1-13 из 13 (С.Дж. Кларксон, Дэвид Петрарка, Стивен Серджик) [2018, США, фантастика, боевик, драма, криминал, экранизация комиксов, HEVC, WEB-DL 720p] MVO (NewStudio) Galfimbul 1413441586313.16 GB 2 0 1523902713

21:18

16-Апр-18

Зарубежные сериалы ·· Джессика Джонс / Marvel’s Jessica Jones / Сезон: 2 / Серии: 1-13 из 13 (Мелисса Розенберг) [2018, США, фантастика, боевик, триллер, драма, криминал, WEB-DL 720p] DVO (Gears Media) + Original Galfimbul 1292845962612.04 GB 0 0 1520912902

06:48

13-Мар-18

Зарубежные сериалы ·· Джессика Джонс / Marvel’s Jessica Jones / Сезон: 2 / Серии: 1-13 из 13 (Мелисса Розенберг / Melissa Rosenberg) [2018, США, фантастика, боевик, триллер, драма, криминал, WEBRip] MVO (BaibaKo) + Original (Eng) + Subs (Rus, Eng) Galfimbul 105217262489.8 GB 0 0 1520763780

13:23

11-Мар-18

Зарубежные сериалы ·· Джессика Джонс / Marvel’s Jessica Jones / Сезон: 2 / Серии: 1-13 из 13 (Анна Ферстер, Минки Спиро, Майрзи Алмас, Дебора Чоу, Милисент Шелтон, Джет Уилкинсон, Джен) [2018, США, Фантастика, Боевик, Триллер, Драма, Криминал, WEBRip 1080p] MVO (Coldfilm) Galfimbul 2351098897621.9 GB 0 0 1520628874

23:54

9-Мар-18

Зарубежные сериалы ·· Джессика Джонс / Marvel's Jessica Jones / Сезон: 2 / Серии: 1-3 из 13 (Melissa Rosenberg) [2018, США, фантастика, боевик, драма, криминал, HDTVRip 1080p] Original + Rus Sub (PhysKids) Galfimbul 1085284342410.11 GB 0 0 1520551465

02:24

9-Мар-18

Зарубежные сериалы ·· Джессика Джонс / Marvel's Jessica Jones / Сезон: 1 / Серии: 1-2 из 13 (С.Дж. Кларксон / S.J. Clarkson) [2015, фантастика, боевик, драма, криминал, WEBRip 1080p] MVO (LostFilm) + Original + Subs (Rus, Eng) Galfimbul 1081229041710.07 GB 0 0 1449409816

16:50

6-Дек-15

Зарубежные сериалы ·· Джессика Джонс / Marvel's Jessica Jones / Сезон: 1 / Серии: 1-2 из 13 (С.Дж. Кларксон / S.J. Clarkson) [2015, фантастика, боевик, драма, криминал, WEBRip 720p] MVO (LostFilm) + Original + Subs (Rus, Eng) Galfimbul 57521118815.36 GB 0 0 1449409810

16:50

6-Дек-15

Зарубежные сериалы ·· Джессика Джонс / Marvel's Jessica Jones / Сезон: 1 / Серии: 1-2 из 13 (С.Дж. Кларксон, Дэвид Петрарка, Стивен Серджик) [2015, фантастика, боевик, криминал, драма, WEBRip 720p] Original + Subs (Rus (Notabenoid), Eng, Spa, Ger, Fre, Dut, Por) Galfimbul 24846552572.31 GB 0 0 1448207132

18:45

22-Ноя-15

Зарубежные сериалы ·· Джессика Джонс / Marvel's Jessica Jones / Сезон: 1 / Серии: 1-2 из 13 (С.Дж. Кларксон, Дэвид Петрарка, Стивен Серджик) [2015, Триллер, драма, детектив WEBRip 720p] MVO (NewStudio) + Original Galfimbul 27815937532.59 GB 0 0 1448130101

21:21

21-Ноя-15

Еще никто не оставлял запись к записи скачать торрент Джессика Джонс Marvel’s Jessica Jones . Будь первым!

!Обратная связь