Merry Christmas Mr. Bean | Fast Download | The Thick of It

Скачать через торрент Джессика Джонс Marvel’s Jessica Jones Фильм бесплатно в хорошем качестве torrent

Скачивайте на UnionPeer.org фильмы через торрент без регистрации. Новинки кино в хорошем качестве через торрент. На UnionPeer.org можно скачать через торрент фильмы 2014 и 2015 годов. Самые новые фильмы.

Скачать торрент Джессика Джонс Marvel’s Jessica Jones бесплатно через .torrent фильм мультфильм сериал

Статистика раздачи
Размер:  12.04 GB   |    Зарегистрирован:  3 месяца 5 дней   |    .torrent скачан:  32 раза   |   
Раздают:  1  
   
загрузка...
 
Автор Сообщение

Galfimbul

avatar Galfimbul


Джессика Джонс / Marvel’s Jessica Jones

Год выпуска: 2018
Страна: США
Жанр: фантастика, боевик, триллер, драма, криминал
Продолжительность: 00:54:00

Перевод: Профессиональный (двухголосый закадровый) [Gears Media]

Режиссёр: Мелисса Розенберг / Melissa Rosenberg
В ролях: Кристен Риттер, Рэйчел Тейлор, Ика Дэрвилл, Дж.Р. Рамирез, Кэрри-Энн Мосс, Дэвид Теннант и др.

Описание: Не так давно Джессика Джонс была супергероем, но ее недолгое пребывание в этой роли закончилось трагедией. Сейчас она восстанавливает свою личную жизнь и карьеру вспыльчивого, язвительного и задиристого частного детектива в Адской Кухне. Джессика пытается преодолеть ненависть к себе и справиться с посттравматическим стрессом, а также борется с внутренними и внешними демонами. А свои экстраординарные способности она использует для защиты тех, кто в ней нуждается, особенно если они могут заплатить за это.

Ссылка на предыдущие и альтернативные раздачи: http://rutracker.org/forum/tracker.php?g=foreign_se...=Jessica%20Jones

Сэмпл: http://multi-up.com/1190585

Качество: WEB-DL 720p
Формат: MKV
Видео: X264, 1280x720 at 23.976 fps, ~2500 kbps avg
Аудио1: Russian, AC3, 48 kHz, 2 ch, 384 kbps
Аудио2: English, ЕAC3, 48 kHz, 6 ch, 448 kbps
Субтитры: нет
Реклама: аудио (два раза, в начале и конце, по 12 сек.)
Format : Matroska
Format version : Version 4 / Version 2
File size : 898 MiB
Duration : 53 min 55 s
Overall bit rate mode : Variable
Overall bit rate : 2 329 kb/s
Encoded date : UTC 2018-03-13 02:26:01
Writing application : mkvmerge v17.0.0 ('Be Ur Friend') 64-bit
Writing library : libebml v1.3.5 + libmatroska v1.4.8

Video
ID : 1
Format : AVC
Format/Info : Advanced Video Codec
Format profile : [email protected]
Format settings, CABAC : Yes
Format settings, RefFrames : 3 frames
Codec ID : V_MPEG4/ISO/AVC
Duration : 53 min 55 s
Bit rate mode : Variable
Bit rate : 1 540 kb/s
Maximum bit rate : 2 310 kb/s
Width : 1 280 pixels
Height : 720 pixels
Display aspect ratio : 16:9
Frame rate mode : Constant
Frame rate : 23.976 (24000/1001) FPS
Color space : YUV
Chroma subsampling : 4:2:0
Bit depth : 8 bits
Scan type : Progressive
Bits/(Pixel*Frame) : 0.070
Stream size : 582 MiB (65%)
Writing library : x264 core 148 r2715 7e75228
Encoding settings : cabac=1 / ref=3 / deblock=1:0:0 / analyse=0x1:0x111 / me=umh / subme=10 / psy=1 / psy_rd=1.00:0.00 / mixed_ref=1 / me_range=24 / chroma_me=1 / trellis=2 / 8x8dct=0 / cqm=0 / deadzone=21,11 / fast_pskip=1 / chroma_qp_offset=-2 / threads=8 / lookahead_threads=1 / sliced_threads=0 / nr=0 / decimate=1 / interlaced=0 / bluray_compat=0 / stitchable=1 / constrained_intra=0 / bframes=2 / b_pyramid=0 / b_adapt=2 / b_bias=0 / direct=3 / weightb=1 / open_gop=0 / weightp=2 / keyint=48 / keyint_min=25 / scenecut=0 / intra_refresh=0 / rc_lookahead=48 / rc=2pass / mbtree=1 / bitrate=1540 / ratetol=1.0 / qcomp=0.50 / qpmin=6 / qpmax=51 / qpstep=4 / cplxblur=20.0 / qblur=0.5 / vbv_maxrate=2310 / vbv_bufsize=3080 / nal_hrd=vbr / filler=0 / ip_ratio=1.40 / aq=1:1.00
Default : Yes
Forced : No

Audio #1
ID : 2
Format : AC-3
Format/Info : Audio Coding 3
Format settings, Endianness : Big
Codec ID : A_AC3
Duration : 53 min 4 s
Bit rate mode : Constant
Bit rate : 384 kb/s
Channel(s) : 2 channels
Channel positions : Front: L R
Sampling rate : 48.0 kHz
Frame rate : 31.250 FPS (1536 SPF)
Bit depth : 16 bits
Compression mode : Lossy
Stream size : 146 MiB (16%)
Title : Gears Media
Language : Russian
Service kind : Complete Main
Default : Yes
Forced : Yes

Audio #2
ID : 3
Format : E-AC-3
Format/Info : Enhanced Audio Coding 3
Format profile : E-AC-3+Atmos / E-AC-3
Format settings, Endianness : Big
Codec ID : A_EAC3
Duration : 53 min 4 s
Bit rate mode : Constant
Bit rate : 448 kb/s
Channel(s) : 15 objects / 6 channels
Channel positions : 15 objects / Front: L C R, Side: L R, LFE
Sampling rate : 48.0 kHz
Frame rate : 187.500 FPS (256 SPF)
Compression mode : Lossy
Stream size : 170 MiB (19%)
Language : English
Service kind : Complete Main
Default : No
Forced : No
<div class="sp-wrap">
<div class="sp-head folded">Внимание! Раздача ведётся путём добавления новых серий</div>
<div class="sp-body">[b]Внимание! Раздача ведётся путём добавления новых серий; при каждом добавлении создаётся новый торрент. Чтобы начать докачку новой серии, пользователям необходимо сделать следующее:
(1) остановить скачивание,
(2) удалить старый торрент у себя из клиента (старые серии удалять не надо),
(3) скачать новый торрент и запустить его у себя в клиенте вместо старого, при этом указать клиенту путь в старую папку куда и должно происходить скачивание новых серий.

Eсли вы уже удалили старые серии, то предотвратить повторную закачку старых серий можно, отжав галочку в соответствующих местах при запуске нового торрента. По возможности, желательно не удалять старые серии как можно дольше чтобы релизёр не столько продолжал раздавать старые серии, а смог сконцентрироваться на новых.</div>
</div>

Трекер:  [ 13-Мар-2018 06:48 ]

  

Скачать .torrent

Размер .torrent файла 31 KB


Размер: 12.04 GB
Хэш (hash) релиза: c061152168617352c2ca348a073817c157c83b94
Подписка на обновления:

Торренты, похожие на Джессика Джонс Marvel’s Jessica Jones скачать торрент

Форум Название Автор Размер S L Добавлен
Зарубежные сериалы ·· Джессика Джонс / Marvel's Jessica Jones / Сезон: 2 / Серии: 1-13 из 13 (С.Дж. Кларксон, Дэвид Петрарка, Стивен Серджик) [2018, США, фантастика, боевик, драма, криминал, экранизация комиксов, HEVC, WEB-DL 720p] MVO (NewStudio) Galfimbul 1413441586313.16 GB 0 0 1523902713

21:18

16-Апр-18

Зарубежные сериалы ·· Джессика Джонс / Marvel’s Jessica Jones / Сезон: 2 / Серии: 1-13 из 13 (Мелисса Розенберг) [2018, США, фантастика, боевик, триллер, драма, криминал, WEB-DLRip] DVO (Gears Media) + Original Galfimbul 75398744727.02 GB 0 0 1520923689

09:48

13-Мар-18

Зарубежные сериалы ·· Джессика Джонс / Marvel’s Jessica Jones / Сезон: 2 / Серии: 1-13 из 13 (Мелисса Розенберг / Melissa Rosenberg) [2018, США, фантастика, боевик, триллер, драма, криминал, WEBRip] MVO (BaibaKo) + Original (Eng) + Subs (Rus, Eng) Galfimbul 105217262489.8 GB 0 0 1520763780

13:23

11-Мар-18

Зарубежные сериалы ·· Джессика Джонс / Marvel’s Jessica Jones / Сезон: 2 / Серии: 1-13 из 13 (Анна Ферстер, Минки Спиро, Майрзи Алмас, Дебора Чоу, Милисент Шелтон, Джет Уилкинсон, Джен) [2018, США, Фантастика, Боевик, Триллер, Драма, Криминал, WEBRip 1080p] MVO (Coldfilm) Galfimbul 2351098897621.9 GB 0 0 1520628874

23:54

9-Мар-18

Зарубежные сериалы ·· Джессика Джонс / Marvel's Jessica Jones / Сезон: 2 / Серии: 1-3 из 13 (Melissa Rosenberg) [2018, США, фантастика, боевик, драма, криминал, HDTVRip 1080p] Original + Rus Sub (PhysKids) Galfimbul 1085284342410.11 GB 0 0 1520551465

02:24

9-Мар-18

Зарубежные сериалы ·· Джессика Джонс / Marvel's Jessica Jones / Сезон: 1 / Серии: 1-2 из 13 (С.Дж. Кларксон / S.J. Clarkson) [2015, фантастика, боевик, драма, криминал, WEBRip 1080p] MVO (LostFilm) + Original + Subs (Rus, Eng) Galfimbul 1081229041710.07 GB 0 0 1449409816

16:50

6-Дек-15

Зарубежные сериалы ·· Джессика Джонс / Marvel's Jessica Jones / Сезон: 1 / Серии: 1-2 из 13 (С.Дж. Кларксон / S.J. Clarkson) [2015, фантастика, боевик, драма, криминал, WEBRip 720p] MVO (LostFilm) + Original + Subs (Rus, Eng) Galfimbul 57521118815.36 GB 0 0 1449409810

16:50

6-Дек-15

Зарубежные сериалы ·· Джессика Джонс / Marvel's Jessica Jones / Сезон: 1 / Серии: 1-2 из 13 (С.Дж. Кларксон, Дэвид Петрарка, Стивен Серджик) [2015, фантастика, боевик, криминал, драма, WEBRip 720p] Original + Subs (Rus (Notabenoid), Eng, Spa, Ger, Fre, Dut, Por) Galfimbul 24846552572.31 GB 0 0 1448207132

18:45

22-Ноя-15

Зарубежные сериалы ·· Джессика Джонс / Marvel's Jessica Jones / Сезон: 1 / Серии: 1-2 из 13 (С.Дж. Кларксон, Дэвид Петрарка, Стивен Серджик) [2015, Триллер, драма, детектив WEBRip 720p] MVO (NewStudio) + Original Galfimbul 27815937532.59 GB 0 0 1448130101

21:21

21-Ноя-15

Еще никто не оставлял запись к записи скачать торрент Джессика Джонс Marvel’s Jessica Jones . Будь первым!

!Обратная связь