Mistah FAB
Hell or High Water (2016) online filmovi sa prevodom

Скачать через торрент Волчица и семеро друзей Ookami-san to Shichinin no Nakama-tachi бесплатно Аниме Все серии на русском torrent

Статистика раздачи
Размер:  71.96 GB   |    Зарегистрирован:  1 месяц 10 дней   |    .torrent скачан:  43 раза   |   
Раздают:  1  
   
загрузка...
 
Автор Сообщение

Galfimbul

avatar Galfimbul


Волчица и семеро друзей / Ookami-san to Shichinin no Nakama-tachi

Год выпуска: 2010
Страна: Япония
Жанр: комедия, романтика, пародия
Тип: TV
Продолжительность: 12 эп. по 25 мин.
Озвучка:

Одноголосая (жен) от Persona99 (GetSmart)
Одноголосая (муж) от Zack Fair (AniDub)
Двухголосая (муж/жен) от absurd95 & Eladiel (AniMedia)

Русские субтитры: есть (отдельным файлом, формат .ass)
Перевод:

Jellyfish, Soulmate, Zarco, St_Ranger [GMC]

Хардсаб: Нет
Режиссер: Ивасаки Ёсиаки
Студия: J.C.Staff

Описание: Что самое ценное на свете? Конечно же, дружба! А друзья должны помогать, и не только друг другу, но и всем желающим, не забывая попутно напоминать древний принцип «услуга за услугу»… Именно этим занимается таинственный «клуб взаимопомощи академии Отоги», каждый из членов которого отыгрывает кого-то из персонажей мировой культуры, решая проблемы товарищей по учебе. И, хотя проблем у японских старшеклассников немало, в «кассе взаимопомощи» трудятся настоящие энтузиасты, работая с таким огоньком, что препятствия на пути решения вопросов можно только пожалеть!

Главная ударная сила клуба – тандем шумной пацанки Рёко Ооками и ее миниатюрной напарницы Ринго Акай по прозвищу Красная Шапочка. Вместе с примкнувшим стажером Рёси Морино, по совместительству поклонником главной героини, девушки неустанно решают проблемы учеников Отоги, выполняя все новые поручения хитроумного президента клуба. Вот только почему каждая история приключений Рёко и ее друзей в основе похожа на очередной сказочный сюжет? А потому, что сказка ложь, да в ней намек!
© Hollow, World Art

Качество: Blu-Ray Remux
Формат: MKV
Видео кодек: AVC
Аудио кодек: FLAC
Видео: 1920x1080 (16:9) 23,976 fps ~33,8 Mbps 8bit
Аудио:
Jap FLAC, 48000Hz, ~652 Kbps, 2ch
RUS 1-3 (ext) AAC, 48000Hz, ~192 Kbps, 2ch

Чаптеры присутствуют.
01. Оками и семеро ребят в Банке Отоги
02. Обманщица Оками и Морино Рёси
03. Волками ввязалась в грязную борьбу Зайца и Черепахи
04. Волками и Оцу, которая возвращает долг
05. Волками и Момо идут охотиться на Они
06. Волками, Красная Шапочка, да и ещё Рёси.
07. Волками и Дзидзо идут на двойное свидание
08. Оками помогает найти Мышке невесту, а со Свиньями нужно обращаться именно так
09. Оками и Белоснежка, на которую не подействовало отравленное яблоко.
10. Оками и самый длинный день Банка Отоги
11. Оками и волк в овечьей шкуре
12. Оками и девочка, которая не продавала спички, но всё равно была очень бедной
Общее
Уникальный идентификатор : 169759779541234824811372714086966287258 (0x7FB68B55BE898ECB4BDD7B76D334DB9A)
Полное имя : Z:\Anime Release - working\Ookami-san to Shichinin no Nakama-tachi\[anti-raws]Ookami-san to Shichinin no Nakama-tachi ep.01[BDRemux].mkv
Формат : Matroska
Версия формата : Version 4 / Version 2
Размер файла : 5,83 Гбайт
Продолжительность : 23 м. 42 с.
Режим общего битрейта : Переменный
Общий поток : 35,2 Мбит/сек
Дата кодирования : UTC 2018-03-12 18:19:26
Программа кодирования : mkvmerge v20.0.0 ('I Am The Sun') 64-bit
Библиотека кодирования : libebml v1.3.5 + libmatroska v1.4.8

Видео
Идентификатор : 2
Формат : AVC
Формат/Информация : Advanced Video Codec
Профиль формата : [email protected]
Настройки формата : CABAC / 2 Ref Frames
Параметр CABAC формата : Да
Параметр RefFrames формата : 2 кадра
Идентификатор кодека : V_MPEG4/ISO/AVC
Продолжительность : 23 м. 42 с.
Вид битрейта : Переменный
Битрейт : 34,6 Мбит/сек
Ширина : 1920 пикселей
Высота : 1080 пикселей
Соотношение сторон : 16:9
Режим частоты кадров : Постоянный
Частота кадров : 23,976 (24000/1001) кадра/сек
Цветовое пространство : YUV
Субдискретизация насыщенности : 4:2:0
Битовая глубина : 8 бит
Тип развёртки : Прогрессивная
Бит/(Пиксели*Кадры) : 0.696
Размер потока : 5,72 Гбайт (98%)
Default : Нет
Forced : Нет

Аудио
Идентификатор : 1
Формат : FLAC
Формат/Информация : Free Lossless Audio Codec
Идентификатор кодека : A_FLAC
Продолжительность : 23 м. 42 с.
Вид битрейта : Переменный
Битрейт : 652 Кбит/сек
Каналы : 2 канала
Расположение каналов : Front: L R
Частота : 48,0 КГц
Частота кадров : 11,719 кадров/сек (4096 SPF)
Битовая глубина : 16 бит
Размер потока : 110 Мбайт (2%)
Библиотека кодирования : libFLAC 1.2.1 (UTC 2007-09-17)
Язык : Japanese
Default : Да
Forced : Нет

Меню
00:00:00.000 : en:00:00:00.000
00:01:29.006 : en:00:01:29.006
00:10:08.983 : en:00:10:08.983
00:20:51.959 : en:00:20:51.959
00:22:22.007 : en:00:22:22.007
00:23:35.998 : en:00:23:35.998
...3686917
...3668589
--BDRip

Эта раздача - BDRemux


Трекер:  [ 12-Мар-2018 23:01 ]

  

Скачать .torrent

Размер .torrent файла 99 KB


Размер: 71.96 GB
Хэш (hash) релиза: af2e7d9f27a01481e4b8c4fdc5d854f200fd69b2
Подписка на обновления:

Торренты, похожие на Волчица и семеро друзей Ookami-san to Shichinin no Nakama-tachi скачать торрент

Форум Название Автор Размер S L Добавлен
Аниме | HD Rips ·· Волчица и семеро друзей / Ookami-san to Shichinin no Nakama-tachi [TV] [1-2 из 12] [JAP+SUB] [2010 г., комедия, романтика, пародия, BDRip] [1080p] Galfimbul 18767686151.75 GB 0 0 1311524406

19:20

24-Июл-11

Аниме | Rips ·· Волчица и семеро друзей / Ookami-san to Shichinin no Nakama-tachi [TV] [1-12 из 12] [RUS(int), JAP, SUB] [2010 г., комедия, романтика, пародия, DTVRip] [Любительская] Polarnik 36686122553.42 GB 0 0 1290021848

22:24

17-Ноя-10

Аниме | HD Rips ·· Волчица и семеро друзей / Ookami-san to Shichinin no Nakama-tachi [TV] [1-12 из 12] [RUS(ext), JAP+SUB] [2010, комедия, романтика, пародия, DTVRip] [Любительская] Polarnik 45542314844.24 GB 0 0 1290021688

22:21

17-Ноя-10

Аниме | HD Rips ·· Волчица и семеро друзей / Ookami-san to Shichinin no Nakama-tachi [TV] [1-12 из 12] [RUS(ext), JAP+SUB] [2010 г.] [Комедия, романтика, пародия] [DTVRip] [Любительская] Владыка 45500609244.24 GB 0 0 1290021394

22:16

17-Ноя-10

Аниме | Rips ·· Волчица и семеро друзей / Ookami-san to Shichinin no Nakama-tachi [TV] [1-12 из 12] [RUS(Int), JAP+SUB] [2010 г., комедия, романтика, пародия, TVRip][Любительская] Nomak 35025779313.26 GB 0 0 1290021348

22:15

17-Ноя-10

Еще никто не оставлял запись к записи скачать торрент Волчица и семеро друзей Ookami-san to Shichinin no Nakama-tachi . Будь первым!

!Обратная связь