Hero Barren Road (2015) | Bluelagoon - Break My Stride | Who's Still Standing

Скачать через торрент Золотая орда Серии: 1-2 из 16 Фильм бесплатно в хорошем качестве torrent

Скачивайте на UnionPeer.org фильмы через торрент без регистрации. Новинки кино в хорошем качестве через торрент. На UnionPeer.org можно скачать через торрент фильмы 2014 и 2015 годов. Самые новые фильмы.

Скачать торрент Золотая орда Серии: 1-2 из 16 бесплатно через .torrent фильм мультфильм сериал

Статистика раздачи
Размер:  1.41 GB   |    Зарегистрирован:  4 месяца 5 дней   |    .torrent скачан:  77 раз   |   
Раздают:  1  
   
загрузка...
 
Автор Сообщение

Galfimbul

avatar Galfimbul


Золотая орда

Год выпуска: 2018
Производство: Марс Медиа Энтертейнмент, Амедиа Продакшн
Жанр: драма, приключения, исторический
Продолжительность: ~00:51:00 серия
Субтитры: нет

Режиссёр: Тимур Алпатов

В ролях: Александр Устюгов, Светлана Колпакова, Артур Иванов, Юлия Пересильд, Сергей Пускепалис, Владимир Верёвочкин, Сергей Гурьев, Евгения Дмитриева, Лариса Домаскина, Сергей Соцердотский, Юрий Тарасов, Аружан Джазильбекова, Дина Тасбулатова, Сабина Ахмедова, Санжар Мади, Даулет Абдыгапаров, Нафиса Хайруллина, Эльмира Калимуллина, Виктор Немец, Сейдулла Молдаханов, Турар Мураталиев, Карина Андоленко, Андрей Удалов, Анна Скиданова, Аскар Ильясов, Феруза Рузиева, Дилия Рузиева, Борис Каморзин, Василий Бочкарёв, Александр Ким

Описание: Конец XIII-го века. В столицу Руси прибывает посланник Золотой Орды — Менгу-Темир, красавец и ценитель женской красоты. Он приехал, чтобы угнать в Орду тысячи русских воинов, но готов довольствоваться лишь частью, если Великий князь Ярослав отдаст княгиню Устинью, жену его брата Бориса. Ярослав не готов нарушить законы Веры и Чести, но Борис сам идет на этот шаг, надеясь, что эта жертва обеспечит ему княжеский престол. Устинья с караваном отправляется на чужбину.
Менгу оставляет Ярославу «подарок» от Великого хана — юную Наргиз, которая пробуждает князя к жизни и ставит его перед роковым выбором. На одной чаше весов — любовь и страсть, на другой — престол и жизнь самой Наргиз, которую не принимает ни народ, ни законная жена Ярослава.

Реклама: Нет.

Кинопоиск

Sample

Качество: HDTVRip - olegka7373 (GeneralFilm)
Формат: AVI
Видео кодек: XviD
Аудио кодек: AC3
Видео: 720x400 (1.80:1), 25 fps, XviD build 73 ~1800 kbps avg, 0.250 bit/pixel
Аудио: 48.0 kHz, AC3 Dolby Digital, 2/0 (L,R) ch, ~ 192 kbps
Раздача ведётся путём добавления новых серий, при каждом добавлении создаётся новый торрент. Чтобы начать докачку новой серии, пользователям необходимо сделать следующее:

- Остановить скачивание.
- Удалить старый торрент у себя из клиента (старые серии удалять не надо).
- Скачать новый торрент и запустить его у себя в клиенте вместо старого, при этом указать клиенту путь в старую папку куда и должно происходить скачивание новых серий.

Ваш клиент при этом должен произвести хеширование (проверку) старой папки (если не производит сам - помогите ему сделать это), и будет докачивать только те серии которых у вас ещё нет. Старые серии при этом не удаляются, а продолжают раздаваться!
Если вы уже удалили старые серии, то предотвратить повторную закачку старых серий можно, отжав галочку в соответствующих местах при запуске нового торрента. По возможности, желательно не удалять старые серии как можно дольше, чтобы релизер не столько продолжал раздавать старые серии, а смог сконцентрироваться на новых.
General
Complete name : D:\Zolotaja orda.HDTVRip.GeneralFilm\01.Zolotaja orda.HDTVRip.GeneralFilm.avi
Format : AVI
Format/Info : Audio Video Interleave
File size : 733 MiB
Duration : 51mn 7s
Overall bit rate : 2 003 Kbps

Video
ID : 0
Format : MPEG-4 Visual
Format profile : Advanced [email protected]
Format settings, BVOP : 1
Format settings, QPel : No
Format settings, GMC : No warppoints
Format settings, Matrix : Custom
Codec ID : XVID
Codec ID/Hint : XviD
Duration : 51mn 7s
Bit rate : 1 800 Kbps
Width : 720 pixels
Height : 400 pixels
Display aspect ratio : 16:9
Frame rate : 25.000 fps
Color space : YUV
Chroma subsampling : 4:2:0
Bit depth : 8 bits
Scan type : Progressive
Compression mode : Lossy
Bits/(Pixel*Frame) : 0.250
Stream size : 658 MiB (90%)
Writing library : XviD 73

Audio
ID : 1
Format : AC-3
Format/Info : Audio Coding 3
Mode extension : CM (complete main)
Format settings, Endianness : Big
Codec ID : 2000
Duration : 51mn 7s
Bit rate mode : Constant
Bit rate : 192 Kbps
Channel count : 2 channels
Channel positions : Front: L R
Sampling rate : 48.0 KHz
Bit depth : 16 bits
Compression mode : Lossy
Stream size : 70.2 MiB (10%)
Alignment : Aligned on interleaves
Interleave, duration : 32 ms (0.80 video frame)


Трекер:  [ 12-Мар-2018 21:12 ]

  

Скачать .torrent

Размер .torrent файла 14 KB


Размер: 1.41 GB
Хэш (hash) релиза: 991ebab10595738e839eceb7600269e754ce3de8
Подписка на обновления:

Торренты, похожие на Золотая орда Серии: 1-2 из 16 скачать торрент

Форум Название Автор Размер S L Добавлен
Российские сериалы ·· Золотая орда / Серии: 1-2 из 16 (Тимур Алпатов) [2018, драма, приключения, исторический, HDTVRip 720p] Galfimbul 27848189872.59 GB 0 0 1520885550

23:12

12-Мар-18

Российские сериалы ·· Золотая орда / Серии: 1-2 из 16 (Тимур Алпатов) [2018, драма, приключения, исторический, HDTV 1080i] Galfimbul 42610826043.97 GB 0 0 1520876559

20:42

12-Мар-18

Еще никто не оставлял запись к записи скачать торрент Золотая орда Серии: 1-2 из 16 . Будь первым!

!Обратная связь