Season 1 Episode 16 The Peanut Reaction | Plus belle la ... saison 14 épisode 3518 | Sieg der Liebe

Скачать через торрент Особо тяжкие преступления Major Crimes Фильм бесплатно в хорошем качестве torrent

Скачивайте на UnionPeer.org фильмы через торрент без регистрации. Новинки кино в хорошем качестве через торрент. На UnionPeer.org можно скачать через торрент фильмы 2014 и 2015 годов. Самые новые фильмы.

Скачать торрент Особо тяжкие преступления Major Crimes бесплатно через .torrent фильм мультфильм сериал

Статистика раздачи
Размер:  43.9 GB   |    Зарегистрирован:  3 месяца 5 дней   |    .torrent скачан:  23 раза   |   
Раздают:  1  
   
загрузка...
 
Автор Сообщение

Galfimbul

avatar Galfimbul


Особо тяжкие преступления / Major Crimes

Год выпуска: 2017-2018
Страна: США
Жанр: Драма, криминал, детектив
Продолжительность: 00:43:00

Перевод: Профессиональный (многоголосый закадровый) IdeaFilm

Режиссёр: Майкл М. Робин, Пол МакКрейн, Зинга Стюарт, Шилин Чокси, Патрик Даффи, Энтони Хемингуэй, Стэйси К. Блэк, Дэвид А. Харп, Рик Уоллес, Джеймс Дафф

В ролях: Мэри МакДоннелл, Дж. У. Бейли, Энтони Джон Дэнисон, Майкл Пол Чан, Рэймонд Крус, Филлип П. Кин, Кирран Джованни, Грэхэм Патрик Мартин, Джонатан Дель Арко, Рэнсфорд Доэрти

Описание: Заключительный сезон. Вопрос о деле Филиппа Стро окончательно разрешится.

Сэмпл: http://www.sendspace.com/file/jkzkm1

Качество: WEB-DL
Формат: MKV
Видео: MPEG4 AVC, 1920x1080, 1:1.778, 23.976 fps, 12000 kbps
Аудио: AC3, 48kHz, 6 ch, 640 kbps [русский]
Аудио 2: AC3, 48kHz, 6 ch, 640 kbps [английский]
Субтитры: Английские

Реклама:
Без аудио и видео рекламы
01. Город-убежище (часть 1)
02. Город-убежище (часть 2)
03. Город-убежище (часть 3)
04. Город-убежище (часть 4)
05. Город-убежище (часть 5)
06. Теория заговора (часть 1)
07. Теория заговора (часть 2)
08. Теория заговора (часть 3)
09. Теория заговора (часть 4)
10. Любой ценой (часть 1)
11. Любой ценой (часть 2)
12. Любой ценой (часть 3)
13. Любой ценой (часть 4)
General
Unique ID : 141262636553305339182177995721922423009 (0x6A4631B5868AD41A561B639A48B1A8E1)
Complete name : Major.Crimes.S06E01.WEB-DL.1080p.mkv
Format : Matroska
Format version : Version 4 / Version 2
File size : 3.43 GiB
Duration : 42mn 10s
Overall bit rate mode : Variable
Overall bit rate : 11.6 Mbps
Writing application : mkvmerge v21.0.0 ('Tardigrades Will Inherit The Earth') 64-bit
Writing library : libebml v1.3.5 + libmatroska v1.4.8
DURATION : 00:42:10.221000000
NUMBER_OF_FRAMES : 72645
NUMBER_OF_BYTES : 202417634
_STATISTICS_WRITING_APP : mkvmerge v21.0.0 ('Tardigrades Will Inherit The Earth') 64-bit
_STATISTICS_WRITING_DATE_UTC : 2018-03-07 22:35:51
_STATISTICS_TAGS : BPS DURATION NUMBER_OF_FRAMES NUMBER_OF_BYTES

Video
ID : 1
Format : AVC
Format/Info : Advanced Video Codec
Format profile : [email protected]
Format settings, CABAC : Yes
Format settings, ReFrames : 4 frames
Codec ID : V_MPEG4/ISO/AVC
Duration : 42mn 10s
Bit rate mode : Variable
Bit rate : 10.1 Mbps
Maximum bit rate : 15.0 Mbps
Width : 1 920 pixels
Height : 1 080 pixels
Display aspect ratio : 16:9
Frame rate mode : Constant
Frame rate : 23.976 fps
Color space : YUV
Chroma subsampling : 4:2:0
Bit depth : 8 bits
Scan type : Progressive
Bits/(Pixel*Frame) : 0.204
Stream size : 2.98 GiB (87%)
Language : English
Default : Yes
Forced : No
Color range : Limited
Color primaries : BT.709
Transfer characteristics : BT.709
Matrix coefficients : BT.709

Audio #1
ID : 2
Format : AC-3
Format/Info : Audio Coding 3
Mode extension : CM (complete main)
Format settings, Endianness : Big
Codec ID : A_AC3
Duration : 42mn 10s
Bit rate mode : Constant
Bit rate : 640 Kbps
Channel(s) : 6 channels
Channel positions : Front: L C R, Side: L R, LFE
Sampling rate : 44.1 KHz
Bit depth : 16 bits
Compression mode : Lossy
Stream size : 193 MiB (5%)
Language : Russian
Default : Yes
Forced : No

Audio #2
ID : 3
Format : E-AC-3
Format/Info : Audio Coding 3
Format settings, Endianness : Big
Codec ID : A_EAC3
Duration : 42mn 10s
Bit rate mode : Constant
Bit rate : 640 Kbps
Channel(s) : 6 channels
Channel positions : Front: L C R, Side: L R, LFE
Sampling rate : 48.0 KHz
Compression mode : Lossy
Stream size : 193 MiB (5%)
Language : English
Default : No
Forced : No

Text
ID : 4
Format : UTF-8
Codec ID : S_TEXT/UTF8
Codec ID/Info : UTF-8 Plain Text
Title : English [CC]
Language : English
Default : No
Forced : No
Предыдущие и альтернативные раздачи

Трекер:  [ 12-Мар-2018 20:48 ]

  

Скачать .torrent

Размер .torrent файла 220 KB


Размер: 43.9 GB
Хэш (hash) релиза: d6471e43d6ff39a2b5125b785f7165eeaaebd716
Подписка на обновления:

Еще никто не оставлял запись к записи скачать торрент Особо тяжкие преступления Major Crimes . Будь первым!

!Обратная связь