Episode #11.5 | Better Angels season 02 episode 12 | Westworld S02E04 720p WEB H264-DEFLATE MKV

Скачать через торрент Золотая орда Серии: 1-2 из 16 Фильм бесплатно в хорошем качестве torrent

Скачивайте на UnionPeer.org фильмы через торрент без регистрации. Новинки кино в хорошем качестве через торрент. На UnionPeer.org можно скачать через торрент фильмы 2014 и 2015 годов. Самые новые фильмы.

Скачать торрент Золотая орда Серии: 1-2 из 16 бесплатно через .torrent фильм мультфильм сериал

Статистика раздачи
Размер:  3.97 GB   |    Зарегистрирован:  4 месяца 5 дней   |    .torrent скачан:  64 раза   |   
Раздают:  1  
   
загрузка...
 
Автор Сообщение

Galfimbul

avatar Galfimbul


Золотая орда

Год выпуска: 2018
Производство: Марс Медиа Энтертейнмент, Амедиа Продакшн
Жанр: драма, приключения, исторический
Продолжительность: ~00:51:00 серия
Субтитры: нет

Режиссёр: Тимур Алпатов

В ролях: Александр Устюгов, Светлана Колпакова, Артур Иванов, Юлия Пересильд, Сергей Пускепалис, Владимир Верёвочкин, Сергей Гурьев, Евгения Дмитриева, Лариса Домаскина, Сергей Соцердотский, Юрий Тарасов, Аружан Джазильбекова, Дина Тасбулатова, Сабина Ахмедова, Санжар Мади, Даулет Абдыгапаров, Нафиса Хайруллина, Эльмира Калимуллина, Виктор Немец, Сейдулла Молдаханов, Турар Мураталиев, Карина Андоленко, Андрей Удалов, Анна Скиданова, Аскар Ильясов, Феруза Рузиева, Дилия Рузиева, Борис Каморзин, Василий Бочкарёв, Александр Ким

Описание: Конец XIII-го века. В столицу Руси прибывает посланник Золотой Орды — Менгу-Темир, красавец и ценитель женской красоты. Он приехал, чтобы угнать в Орду тысячи русских воинов, но готов довольствоваться лишь частью, если Великий князь Ярослав отдаст княгиню Устинью, жену его брата Бориса. Ярослав не готов нарушить законы Веры и Чести, но Борис сам идет на этот шаг, надеясь, что эта жертва обеспечит ему княжеский престол. Устинья с караваном отправляется на чужбину.
Менгу оставляет Ярославу «подарок» от Великого хана — юную Наргиз, которая пробуждает князя к жизни и ставит его перед роковым выбором. На одной чаше весов — любовь и страсть, на другой — престол и жизнь самой Наргиз, которую не принимает ни народ, ни законная жена Ярослава.

Реклама: Нет.

Кинопоиск

Sample

Качество: HDTV 1080i - olegka7373 (GeneralFilm)
Формат: TS
Видео кодек: AVC
Аудио кодек: AC3, MP2
Видео: MPEG4 AVC Video, H264, 16:9, 1920x1080, 25 fps, ~4900 kbps, 0.094 bit/pixel
Аудио: AC3, 6 ch, 384 kbps, 16 bits, 48.0 KHz
Аудио 2: MP2, 2 ch, 192 kbps, 16 bits, 48.0 KHz
Раздача ведётся путём добавления новых серий, при каждом добавлении создаётся новый торрент. Чтобы начать докачку новой серии, пользователям необходимо сделать следующее:

- Остановить скачивание.
- Удалить старый торрент у себя из клиента (старые серии удалять не надо).
- Скачать новый торрент и запустить его у себя в клиенте вместо старого, при этом указать клиенту путь в старую папку куда и должно происходить скачивание новых серий.

Ваш клиент при этом должен произвести хеширование (проверку) старой папки (если не производит сам - помогите ему сделать это), и будет докачивать только те серии которых у вас ещё нет. Старые серии при этом не удаляются, а продолжают раздаваться!
Если вы уже удалили старые серии, то предотвратить повторную закачку старых серий можно, отжав галочку в соответствующих местах при запуске нового торрента. По возможности, желательно не удалять старые серии как можно дольше, чтобы релизер не столько продолжал раздавать старые серии, а смог сконцентрироваться на новых.
General
ID : 1 (0x1)
Complete name : D:\Zolotaja orda.HDTV(1080i).GeneralFilm\01.Zolotaja orda.HDTV(1080i).GeneralFilm.ts
Format : MPEG-TS
File size : 2.05 GiB
Duration : 51mn 7s
Overall bit rate mode : Variable
Overall bit rate : 5 741 Kbps

Video
ID : 1904 (0x770)
Menu ID : 80 (0x50)
Format : AVC
Format/Info : Advanced Video Codec
Format profile : [email protected]
Format settings, CABAC : Yes
Format settings, ReFrames : 3 frames
Format settings, GOP : M=4, N=32
Codec ID : 27
Duration : 51mn 7s
Bit rate : 4 875 Kbps
Width : 1 920 pixels
Height : 1 080 pixels
Display aspect ratio : 16:9
Frame rate : 25.000 fps
Standard : Component
Color space : YUV
Chroma subsampling : 4:2:0
Bit depth : 8 bits
Scan type : Interlaced
Scan order : Top Field First
Bits/(Pixel*Frame) : 0.094
Stream size : 1.74 GiB (85%)
Color primaries : BT.709
Transfer characteristics : BT.709
Matrix coefficients : BT.709

Audio #1
ID : 2904 (0xB58)
Menu ID : 80 (0x50)
Format : AC-3
Format/Info : Audio Coding 3
Mode extension : CM (complete main)
Format settings, Endianness : Big
Codec ID : 6
Duration : 51mn 7s
Bit rate mode : Constant
Bit rate : 384 Kbps
Channel count : 6 channels
Channel positions : Front: L C R, Side: L R, LFE
Sampling rate : 48.0 KHz
Bit depth : 16 bits
Compression mode : Lossy
Delay relative to video : -40ms
Stream size : 140 MiB (7%)
Language : Russian

Audio #2
ID : 2905 (0xB59)
Menu ID : 80 (0x50)
Format : MPEG Audio
Format version : Version 1
Format profile : Layer 2
Codec ID : 3
Duration : 51mn 7s
Bit rate mode : Constant
Bit rate : 192 Kbps
Channel count : 2 channels
Sampling rate : 48.0 KHz
Compression mode : Lossy
Delay relative to video : -40ms
Stream size : 70.2 MiB (3%)
Language : Russian


Трекер:  [ 12-Мар-2018 20:42 ]

  

Скачать .torrent

Размер .torrent файла 20 KB


Размер: 3.97 GB
Хэш (hash) релиза: 09cdc3fbbba64995448d74f35874fb91c64a6861
Подписка на обновления:

Торренты, похожие на Золотая орда Серии: 1-2 из 16 скачать торрент

Форум Название Автор Размер S L Добавлен
Российские сериалы ·· Золотая орда / Серии: 1-2 из 16 (Тимур Алпатов) [2018, драма, приключения, исторический, HDTVRip 720p] Galfimbul 27848189872.59 GB 0 0 1520885550

23:12

12-Мар-18

Российские сериалы ·· Золотая орда / Серии: 1-2 из 16 (Тимур Алпатов) [2018, драма, приключения, исторический, HDTVRip] Galfimbul 15097907201.41 GB 0 0 1520878387

21:13

12-Мар-18

Еще никто не оставлял запись к записи скачать торрент Золотая орда Серии: 1-2 из 16 . Будь первым!

!Обратная связь