Season 2 Episode 22 Paint It Black | Nothing Like a Dame (2018) | Read More

Скачать через торрент Получеловек. Фильм 3: Противостояние Ajin Part 3: Shougeki бесплатно Аниме Все серии на русском torrent

Статистика раздачи
Размер:  1.93 GB   |    Зарегистрирован:  3 месяца 9 дней   |    .torrent скачан:  31 раз   |   
Раздают:  1  
   
загрузка...
 
Автор Сообщение

Galfimbul

avatar Galfimbul


Получеловек. Фильм 3: Противостояние / Ajin Part 3: Shougeki

Страна: Япония
Год выпуска: 2016
Жанр: приключения, сейнен, сверхъестественное, детектив
Тип: Movie
Продолжительность: 105 мин.
Режиссер: Сэсита Хироюки
Студия: Polygon Pictures

Перевод на русский: [Yakusub Studio]
Перевод: Nika_Elrik
Редакция: Harushechka

Описание: Для старшеклассника Кэя и еще сорока шести других людей, неожиданное бессмертие становится ужасным сюрпризом. К несчастью для Кэя, это не делает его супергероем. В глазах общественности и правительства он — редкий экземпляр, который необходимо выследить и поймать, дабы в дальнейшем передать его учёным для проведения экспериментов... Экспериментов, во время которых ему придется умереть тысячи раз на благо человечества.

Качество: BDRip
Тип релиза: Без хардсаба
Формат видео: MP4
Релиз/Автор рипа: Ohys-Raws
Видео: AVC, 1280x720, 2077 kbps, 23.976 fps
Аудио: AAC, 205 kbps, 48 Hz, 2 ch Язык Японский
Субтитры: ASS, внешние, надписи (по умолчанию) Язык субтитров русский
ОбщееПолное имя : D:\torrent\Ajin Movie 3\[Ohys-Raws] Ajin Movie - 03 (BD 1280x720 x264 AAC).mp4Формат : MPEG-4Профиль формата : Base MediaИдентификатор кодека : isom (isom/avc1)Размер файла : 1,93 ГбайтПродолжительность : 2 ч. 0 м.Режим общего битрейта : ПеременныйОбщий поток : 2286 Кбит/секДата кодирования : UTC 2017-05-21 06:27:44Дата пометки : UTC 2017-05-21 06:27:44

ВидеоИдентификатор : 1Формат : AVCФормат/Информация : Advanced Video CodecПрофиль формата : [email protected]Настройки формата : CABAC / 4 Ref FramesПараметр CABAC формата : ДаПараметр RefFrames формата : 4 кадраИдентификатор кодека : avc1Идентификатор кодека/Информация : Advanced Video CodingПродолжительность : 2 ч. 0 м.Битрейт : 2077 Кбит/секМаксимальный битрейт : 32,7 Мбит/секШирина : 1280 пикселейВысота : 720 пикселейСоотношение сторон : 16:9Режим частоты кадров : ПостоянныйЧастота кадров : 23,976 (24000/1001) кадра/секЦветовое пространство : YUVСубдискретизация насыщенности : 4:2:0Битовая глубина : 8 битТип развёртки : ПрогрессивнаяБит/(Пиксели*Кадры) : 0.094Размер потока : 1,75 Гбайт (91%)Библиотека кодирования : x264 core 148 r2762+56 6284cf3 t_mod_Custom [[email protected] X86_64]Настройки программы : cabac=1 / ref=3 / deblock=1:0:0 / analyse=0x1:0x131 / me=umh / subme=9 / psy=1 / fade_compensate=0.00 / psy_rd=1.00:0.00 / mixed_ref=1 / me_range=32 / chroma_me=1 / trellis=1 / 8x8dct=0 / cqm=0 / deadzone=21,11 / fast_pskip=1 / chroma_qp_offset=-2 / threads=12 / lookahead_threads=1 / sliced_threads=0 / nr=0 / decimate=1 / interlaced=0 / bluray_compat=0 / constrained_intra=0 / fgo=0 / bframes=3 / b_pyramid=2 / b_adapt=1 / b_bias=0 / direct=1 / weightb=1 / open_gop=0 / weightp=2 / keyint=240 / keyint_min=1 / scenecut=40 / intra_refresh=0 / rc_lookahead=40 / rc=crf / mbtree=1 / crf=18.0000 / qcomp=0.60 / qpmin=0:0:0 / qpmax=69:69:69 / qpstep=4 / ip_ratio=1.40 / aq=1:1.00 / aq-sensitivity=10.00 / aq-factor=1.00:1.00:1.00 / aq2=0 / aq3=0Дата кодирования : UTC 2017-05-21 06:27:44Дата пометки : UTC 2017-05-21 06:28:16

АудиоИдентификатор : 2Формат : AACФормат/Информация : Advanced Audio CodecПрофиль формата : LCИдентификатор кодека : mp4a-40-2Продолжительность : 2 ч. 0 м.Вид битрейта : ПеременныйБитрейт : 205 Кбит/секМаксимальный битрейт : 282 Кбит/секКаналы : 2 каналаРасположение каналов : Front: L RЧастота : 48,0 КГцЧастота кадров : 46,875 кадров/сек (1024 SPF)Метод сжатия : С потерямиРазмер потока : 177 Мбайт (9%)Язык : JapaneseДата кодирования : UTC 2017-05-21 03:26:41Дата пометки : UTC 2017-05-21 06:28:16


Трекер:  [ 12-Мар-2018 20:01 ]

  

Скачать .torrent

Размер .torrent файла 20 KB


Размер: 1.93 GB
Хэш (hash) релиза: 1bd3661c95149604a3c2b32afe4556f66c021076
Подписка на обновления:

Еще никто не оставлял запись к записи скачать торрент Получеловек. Фильм 3: Противостояние Ajin Part 3: Shougeki . Будь первым!

!Обратная связь