Шансон, Авторская песня, Романс | Legend of Gingko | The Executioner

Скачать через торрент Сон Ruya Фильм бесплатно в хорошем качестве torrent

Скачивайте на UnionPeer.org фильмы через торрент без регистрации. Новинки кино в хорошем качестве через торрент. На UnionPeer.org можно скачать через торрент фильмы 2014 и 2015 годов. Самые новые фильмы.

Скачать торрент Сон Ruya бесплатно через .torrent фильм мультфильм сериал

Статистика раздачи
Размер:  1.59 GB   |    Зарегистрирован:  4 месяца 5 дней   |    .torrent скачан:  14 раз   |   
Раздают:  1  
   
загрузка...
 
Автор Сообщение

Galfimbul

avatar Galfimbul


Сон / Ruya

Год выпуска: 2017
Страна: Турция
Производство: Show Tv
Жанр: Мелодрама
Серии (количество): 1 (10)
Продолжительность: ~ 2:20:00/ каждая
Перевод: любительский одноголосый закадровый (Ирина Котова)
Субтитры: Отсутствуют

Режиссёр: Джемаль Шан

В ролях: Хазал Филиз Кючюккосе, Джейхун Менгироглу, Улаш Туна Астепе, Озге Сезиндже, Гонджагюль Сунар

Описание: У всех есть право на сон, в котором можно ощутить себя абсолютно счастливым человеком. Булут советует своей возлюбленной Элиф закрывать глаза и отправляться в мир сновидений — такой манящий и притягательный. Эти двое любит друг друга, но не могут быть вместе, виной тому — классовое неравенство. Но и это ещё не всё — есть кто-то третий, кто тянет Элиф обратно на своё место. В этом любовном треугольнике молодым людям придётся много бороться за возможность быть вместе.
Сэмпл: http://multi-up.com/1190504
Качество: HDTVRip
Формат: AVI
Видео кодек: XviD
Аудио кодек: MP3
Видео: 720x400 (1.80:1), 25 fps, XviD build 73 ~1363 kbps avg
Аудио: 44.100 kHz, MPEG Layer 3, 2 ch, ~192 kbps avg
Реклама:
Отсутствует
Формат : AVI
Формат/Информация : Audio Video Interleave
Размер файла : 1,59 Гбайт
Продолжительность : 2 ч. 25 м.
Общий поток : 1560 Кбит/сек

Видео
Идентификатор : 0
Формат : MPEG-4 Visual
Профиль формата : Advanced [email protected]
Параметр BVOP формата : 2
Параметр QPel формата : Нет
Параметр GMC формата : Без точки перехода
Параметр матрицы формата : Default (H.263)
Режим смешивания : Сжатый битовый поток
Идентификатор кодека : XVID
Идентификатор кодека/Подсказка : XviD
Продолжительность : 2 ч. 25 м.
Битрейт : 1358 Кбит/сек
Ширина : 720 пикселей
Высота : 400 пикселей
Соотношение сторон : 16:9
Частота кадров : 25,000 кадров/сек
Цветовое пространство : YUV
Субдискретизация насыщенности : 4:2:0
Битовая глубина : 8 бит
Тип развёртки : Прогрессивная
Метод сжатия : С потерями
Бит/(Пиксели*Кадры) : 0.189
Размер потока : 1,38 Гбайт (87%)
Библиотека кодирования : XviD 73

Аудио
Идентификатор : 1
Формат : MPEG Audio
Версия формата : Version 1
Профиль формата : Layer 3
Режим : Joint stereo
Идентификатор кодека : 55
Идентификатор кодека/Подсказка : MP3
Продолжительность : 2 ч. 25 м.
Вид битрейта : Постоянный
Битрейт : 192 Кбит/сек
Каналы : 2 канала
Частота : 44,1 КГц
Метод сжатия : С потерями
Размер потока : 200 Мбайт (12%)
Выравнивание : Разделение по промежуткам
Продолжительность промежутка : 40 мс. (1,00 видеокадр)
Время предзагрузки промежутка : 500 мс.
Внимание! Раздача ведётся путём добавления новых серий; при каждом добавлении создётся новый торрент. Чтобы начать докачку новой серии, пользователям необходимо сделать следующее:

Остановить скачивание.
Удалить старый торрент у себя из клиента (старые серии удалять не надо).
Скачать новый торрент и запустить его у себя в клиенте вместо старого, при этом указать клиенту путь в старую папку куда и должно происходить скачивание новых серий.

Ваш клиент при этом должен произвести хеширование (проверку) старой папки (если не производит сам - помогите ему сделать это), и будет докачивать только те серии которых у вас ещё нет. Старые серии при этом не удаляются, а продолжают раздаваться!
Eсли вы уже удалили старые серии, то предотвратить повторную закачку старых серий можно, отжав галочку в соответсвующих местах при запуске нового торрента. По возможности, желательно не удалять старые серии как можно дольше чтобы релизёр не столько продолжал раздавать старые серии, а смог сконцентрироваться на новых.
Предыдущие и альтернативные раздачи

Трекер:  [ 12-Мар-2018 19:48 ]

  

Скачать .torrent

Размер .torrent файла 16 KB


Размер: 1.59 GB
Хэш (hash) релиза: 6f2b590bcaf09106f8f6db646e8e0582b640ab9d
Подписка на обновления:

Еще никто не оставлял запись к записи скачать торрент Сон Ruya . Будь первым!

!Обратная связь