Hungarian Literature | Other Torrents | Begierde - The Hunger

Скачать через торрент Подлый Пит Фильм бесплатно в хорошем качестве torrent

Скачивайте на UnionPeer.org фильмы через торрент без регистрации. Новинки кино в хорошем качестве через торрент. На UnionPeer.org можно скачать через торрент фильмы 2014 и 2015 годов. Самые новые фильмы.

Скачать торрент Подлый Пит бесплатно через .torrent фильм мультфильм сериал

Статистика раздачи
Размер:  7.41 GB   |    Зарегистрирован:  3 месяца 5 дней   |    .torrent скачан:  13 раз   |   
Раздают:  1  
   
загрузка...
 
Автор Сообщение

Galfimbul

avatar Galfimbul


Подлый Пит (Хитрый Пит) / Sneaky Pete

Год выпуска: 2018
Страна: США
Жанр: Драма, криминал
Продолжительность: ~ 00:50:00

Перевод: Субтитры Dark_Alice

Режиссёр: Сет Гордон
В ролях: Джованни Рибизи, Марин Айрлэнд, Марго Мартиндейл, Шэйн МакРей, Либэ Барер, Питер Герети, Итэн Эмбри, Доменик Ломбардоззи, Дебра Монк, Майкл Дрэйер, Брайан Крэнстон

Описание: По сюжету молодой мошенник Пит, отсидев положенный срок, решает завязать с тёмным прошлым, примерив на себя личину бывшего сокамерника. Скрываясь от местной мафии, парень пристраивается в семейный бизнес того самого сокамерника. Со временем он осознает, что такое настоящая семья, и даже обретёт любовь всей своей жизни, но прошлые грехи не позволят ему расслабиться ни на минуту, угрожая уничтожить и главного героя, и его новую жизнь

Сэмпл: http://sendfile.su/1405431

Качество: WEBRip 1080p
Контейнер: MKV
Видео: MPEG-4 AVC, ~ 10,9 Мбит/с, 1920x1080
Аудио: Английский (EAС3, 6 ch, 640 Кбит/с)
Субтитры: русские, английские, французские, немецкие
Реклама:
отсутствует
1-2
General
Complete name : D:\Sneaky Pete S02\Sneaky.Pete.S02E02.mkv
Format : Matroska
File size : 3.08 GiB
Duration : 41mn 51s
Overall bit rate : 10.5 Mbps
Encoded date : UTC 2018-03-11 20:38:37
Writing application : mkvmerge v20.0.0 ('I Am The Sun') 64-bit
Writing library : libebml v1.3.5 + libmatroska v1.4.8

Video
ID : 1
Format : AVC
Format/Info : Advanced Video Codec
Format profile : [email protected]
Format settings, CABAC : Yes
Format settings, ReFrames : 4 frames
Codec ID : V_MPEG4/ISO/AVC
Duration : 41mn 51s
Bit rate mode : Variable
Bit rate : 9 673 Kbps
Maximum bit rate : 15.0 Mbps
Width : 1 920 pixels
Height : 1 080 pixels
Display aspect ratio : 16:9
Frame rate : 23.976 fps
Color space : YUV
Chroma subsampling : 4:2:0
Bit depth : 8 bits
Scan type : Progressive
Bits/(Pixel*Frame) : 0.195
Stream size : 2.83 GiB (92%)
Language : English
Color primaries : BT.709-5, BT.1361, IEC 61966-2-4, SMPTE RP177
Transfer characteristics : BT.709-5, BT.1361
Matrix coefficients : BT.709-5, BT.1361, IEC 61966-2-4 709, SMPTE RP177

Audio
ID : 2
Format : E-AC-3
Format/Info : Audio Coding 3
Codec ID : A_EAC3
Duration : 41mn 51s
Bit rate mode : Constant
Bit rate : 640 Kbps
Channel(s) : 6 channels
Channel positions : Front: L C R, Side: L R, LFE
Sampling rate : 48.0 KHz
Stream size : 192 MiB (6%)
Language : English

Text #1
ID : 3
Format : UTF-8
Codec ID : S_TEXT/UTF8
Codec ID/Info : UTF-8 Plain Text
Title : Dark_Alice
Language : Russian

Text #2
ID : 4
Format : UTF-8
Codec ID : S_TEXT/UTF8
Codec ID/Info : UTF-8 Plain Text
Title : English
Language : English

Text #3
ID : 5
Format : UTF-8
Codec ID : S_TEXT/UTF8
Codec ID/Info : UTF-8 Plain Text
Title : English (SDH)
Language : English

Text #4
ID : 6
Format : UTF-8
Codec ID : S_TEXT/UTF8
Codec ID/Info : UTF-8 Plain Text
Title : French
Language : French

Text #5
ID : 7
Format : UTF-8
Codec ID : S_TEXT/UTF8
Codec ID/Info : UTF-8 Plain Text
Title : German
Language : German
[url=tracker.php?g=foreign_serials&nm=Sneaky%20Pete]Предыдущие и альтернативные раздачи

Трекер:  [ 12-Мар-2018 19:18 ]

  

Скачать .torrent

Размер .torrent файла 19 KB


Размер: 7.41 GB
Хэш (hash) релиза: 59648f4adc483f413f6c416e642c87252dccc951
Подписка на обновления:

Торренты, похожие на Подлый Пит скачать торрент

Форум Название Автор Размер S L Добавлен
Зарубежные сериалы ·· Подлый Пит (Хитрый Пит) / Sneaky Pete / Сезон: 1 / Серии: 0-10 из 11 (Сет Гордон) [2017, США, Драма, криминал, WEBRip 720p] Original + Rus Sub (Dark Alice) Galfimbul 1997442883318.6 GB 0 0 1520873316

19:48

12-Мар-18

Зарубежные сериалы ·· Хитрый Пит / Подлый Пит / Sneaky Pete / Сезон: 1 / Серия: 1-10 из 10 (Сет Гордон / Seth Gordon) [2017, США, Драма, криминал, WEBRip 720p] MVO (Jaskier) + Original Galfimbul 2046323574619.06 GB 0 0 1490176519

12:55

22-Мар-17

Зарубежные сериалы ·· Подлый Пит / Sneaky Pete / Сезон: 2 / Серии: 1-10 из 10 (Сэт Гордон) [2018, США, Драма, криминал, WEB-DL 720p] MVO (Jaskier) + Original + Sub, Eng Galfimbul 1395850832113 GB 0 0 1524345511

00:18

22-Апр-18

Зарубежные сериалы ·· Подлый Пит / Sneaky Pete / Сезон: 2 / Серии: 1-10 из 10 (Сэт Гордон) [2018, США, Драма, криминал, WEB-DLRip] MVO (Jaskier) + Original Galfimbul 63499980805.91 GB 0 0 1524345488

00:18

22-Апр-18

Зарубежные сериалы ·· Подлый Пит / Sneaky Pete / Сезон: 2 / Серии: 1-10 из 10 (Майкл Диннер, Адам Аркин, Лора Иннес) [2018, США, Драма, криминал, WEBRip 720p] MVO (AMS) + Original Eng Galfimbul 1592320513614.83 GB 0 0 1522981095

05:18

6-Апр-18

Зарубежные сериалы ·· Подлый пит / Sneaky Pete / Сезон 2 / Серии: 1-10 (10) (Майкл Диннер, Адам Аркин, Лора Иннес) [2018, США, драма, криминал, WEB-DL 1080p] MVO (Lostfilm) + Original + Subs (Rus, Eng) Galfimbul 4015472443137.4 GB 0 0 1522676898

16:48

2-Апр-18

Зарубежные сериалы ·· Подлый Пит / Sneaky Pete / Сезон: 2 / Серии: 1-10 из 10 (Майкл Диннер, Адам Аркин, Лора Иннес) [2018, США, драма, криминал, WEBRip] MVO (LostFilm) + Original + Sub (rus, eng) Galfimbul 67360399296.27 GB 0 0 1521200888

14:48

16-Мар-18

Зарубежные сериалы ·· Подлый Пит / Sneaky Pete / Сезон: 2 / Серии: 1-10 из 10 (Адам Аркин / Adam Arkin) [2018, США, Драма, криминал, WEBRip 1080p] MVO (Coldfilm без рекламы) + Original Galfimbul 3941784807736.71 GB 0 0 1521125296

17:48

15-Мар-18

Зарубежные сериалы ·· Подлый Пит / Sneaky Pete / Сезон: 2 / Серии: 1-10 из 10 (Сет Гордон) [2018, США, Криминал, драма, WEBRip] DVO (Coldfilm) Galfimbul 1248054647311.62 GB 0 0 1520876890

20:48

12-Мар-18

Зарубежные сериалы ·· Подлый Пит / Sneaky Pete / Сезон: 1 / Серии: 1-10 из 10 (Сэт Гордон) [2017, США, Драма, криминал, WEBRip] MVO (LostFilm) + Original Galfimbul 67953152006.33 GB 0 0 1501107710

01:21

27-Июл-17

Зарубежные сериалы ·· Подлый Пит / Sneaky Pete / Сезон: 1 / Серии: 1-10 из 10 (Сэт Гордон) [2017, США, Драма, криминал, WEBRip] MVO (Jaskier) + Original Galfimbul 65070469126.06 GB 0 0 1490178343

13:25

22-Мар-17

Зарубежные сериалы ·· Подлый Пит / Sneaky Pete / Сезон: 1 / Серии: 1-10 из 10 (Сэт Гордон) [2017, США, Драма, криминал, WEBRip] Original + Rus Sub Galfimbul 58806953435.48 GB 0 0 1485730261

01:51

30-Янв-17

Еще никто не оставлял запись к записи скачать торрент Подлый Пит . Будь первым!

!Обратная связь