voir épisode 5 | Service Delivery Platforms: Developing and Deploying Converged Multimedia Services | Season 11 Episode 9 The Bitcoin Entanglement

Скачать через торрент Так близко This Close Фильм бесплатно в хорошем качестве torrent

Скачивайте на UnionPeer.org фильмы через торрент без регистрации. Новинки кино в хорошем качестве через торрент. На UnionPeer.org можно скачать через торрент фильмы 2014 и 2015 годов. Самые новые фильмы.

Скачать торрент Так близко This Close бесплатно через .torrent фильм мультфильм сериал

Статистика раздачи
Размер:  890 MB   |    Зарегистрирован:  3 месяца 5 дней   |    .torrent скачан:  9 раз   |   
Раздают:  1  
   
загрузка...
 
Автор Сообщение

Galfimbul

avatar Galfimbul


Так близко / This Close

Год выпуска: 2018
Страна: США
Жанр: Драма, комедия
Продолжительность: ~ 00:25:00

Перевод: Профессиональный (многоголосый закадровый) | Jaskier

Режиссёр: Джош Фелдмен

В ролях: Марли Мэтлин, Шерил Хайнс, Зак Гилфорд, Кольт Праттс

Описание: Сериал, познакомит нас с двумя харизматичными личностями: с Кейт и Майклом, которые являются лучшими друзьями. Оба героя имеют сложные судьбы, например, Майкл, он недавно расстался со своим женихом. Раны на сердце Майкла еще не успели зажить. Или Кейт – кажется, что у нее все хорошо: неплохая должность менеджера по планированию в крупной компании Лос- Анжелеса, крепкие отношения, ведущие девушку под венец. Но есть одно, но: оба героя глухонемые. Конечно, это несколько усложняет их жизнь. Судьба ставит перед ребятами много сложностей, с которыми герои помогают друг другу справляться.



Качество: WEB-DL 720p
Формат: MKV
Видео: X264, ~ 2000 kbps, 1280x720 (16:9), 25 fps
Аудио 1: AC3, 48,0 КГц, 2 ch, 192 kbps - RUS
Аудио 2: AC3, 48,0 КГц, 2 ch, 192 kbps - ENG
Субтитры: отсутствуют
Реклама: аудио, два раза в начале и в конце по 13 секунд
Ссылка на предыдущие и альтернативные раздачи
Общее
Уникальный идентификатор                 : 234347188811820201431165061118019482962 (0xB04DA078089177CE85FAA058A2C3B552)
Формат                                   : Matroska
Версия формата                           : Version 2
Размер файла                             : 443 Мбайт
Продолжительность                        : 25 м.
Режим общего битрейта                    : Переменный
Общий поток                              : 2436 Кбит/сек
Дата кодирования                         : UTC 2018-03-12 14:22:39
Программа кодирования                    : mkvmerge v5.8.0 ('No Sleep / Pillow') built on Sep  2 2012 15:37:04
Библиотека кодирования                   : libebml v1.2.3 + libmatroska v1.3.0

Видео
Идентификатор                            : 1
Формат                                   : AVC
Формат/Информация                        : Advanced Video Codec
Профиль формата                          : [email protected]
Параметр CABAC формата                   : Да
Параметр ReFrames формата                : 5 кадров
Идентификатор кодека                     : V_MPEG4/ISO/AVC
Продолжительность                        : 25 м.
Вид битрейта                             : Переменный
Битрейт                                  : 2004 Кбит/сек
Максимальный битрейт                     : 4500 Кбит/сек
Ширина                                   : 1280 пикселей
Высота                                   : 720 пикселей
Соотношение сторон                       : 16:9
Режим частоты кадров                     : Постоянный
Частота кадров                           : 25,000 кадров/сек
Цветовое пространство                    : YUV
Субдискретизация насыщенности            : 4:2:0
Битовая глубина                          : 8 бит
Тип развёртки                            : Прогрессивная
Бит/(Пиксели*Кадры)                      : 0.087
Размер потока                            : 365 Мбайт (82%)
Default                                  : Да
Forced                                   : Нет
Цветовой диапазон                        : Limited
Основные цвета                           : BT.709
Характеристики трансфера                 : BT.709
Коэффициенты матрицы                     : BT.709

Аудио #1
Идентификатор                            : 2
Формат                                   : AC-3
Формат/Информация                        : Audio Coding 3
Расширение режима                        : CM (complete main)
Параметр Endianness формата              : Big
Идентификатор кодека                     : A_AC3
Продолжительность                        : 25 м.
Вид битрейта                             : Постоянный
Битрейт                                  : 192 Кбит/сек
Каналы                                   : 2 канала
Расположение каналов                     : Front: L R
Частота                                  : 48,0 КГц
Частота кадров                           : 31,250 кадров/сек (1536 spf)
Метод сжатия                             : С потерями
Размер потока                            : 34,9 Мбайт (8%)
Язык                                     : Russian
Default                                  : Да
Forced                                   : Нет

Аудио #2
Идентификатор                            : 3
Формат                                   : AC-3
Формат/Информация                        : Audio Coding 3
Расширение режима                        : CM (complete main)
Параметр Endianness формата              : Big
Идентификатор кодека                     : A_AC3
Продолжительность                        : 25 м.
Вид битрейта                             : Постоянный
Битрейт                                  : 192 Кбит/сек
Каналы                                   : 2 канала
Расположение каналов                     : Front: L R
Частота                                  : 48,0 КГц
Частота кадров                           : 31,250 кадров/сек (1536 spf)
Метод сжатия                             : С потерями
Размер потока                            : 34,9 Мбайт (8%)
Язык                                     : English
Default                                  : Нет
Forced                                   : Нет
Когда раздача ведётся путём добавления новых серий, при каждом добавлении создётся новый торрент. Чтобы начать докачку новой серии, пользователям необходимо сделать следующее:
(1) остановить скачивание,
(2) удалить старый торрент у себя из клиента (старые серии удалять не надо),
(3) скачать новый торрент и запустить его у себя в клиенте вместо старого, при этом указать клиенту путь в старую папку, куда и должно происходить скачивание новых серий.
Ваш клиент при этом должен произвести хеширование (проверку) старой папки (если не производит сам - помогите ему сделать это), и будет докачивать только те серии, которых у вас ещё нет. Старые серии при этом не удаляются, а продолжают раздаваться!
Eсли вы уже удалили старые серии, то предотвратить повторную закачку старых серий можно, отжав галочку в соответсвующих местах при запуске нового торрента. По возможности, желательно не удалять старые серии как можно дольше, чтобы релизёр не столько продолжал раздавать старые серии, а смог сконцентрироваться на новых.


Трекер:  [ 12-Мар-2018 18:48 ]

  

Скачать .torrent

Размер .torrent файла 18 KB


Размер: 890 MB
Хэш (hash) релиза: b363e36c06ee6df75a8fa4cd41a63a6f42286ce7
Подписка на обновления:

Торренты, похожие на Так близко This Close скачать торрент

Форум Название Автор Размер S L Добавлен
Зарубежные сериалы ·· Так близко / This Close / Сезон: 1 / Серии: 1-2 из 6 (Джош Фелдмен) [2018, США, Драма, комедия, WEB-DLRip] MVO (Jaskier) Galfimbul 669014016638 MB 0 0 1520869691

18:48

12-Мар-18

Еще никто не оставлял запись к записи скачать торрент Так близко This Close . Будь первым!

!Обратная связь