regarder un Film | The Last Tycoon | The Moment - 此情此刻The Moment

Скачать через торрент Жар-птица: Глава о космосе Hi no Tori: Uchuu Hen бесплатно Аниме Все серии на русском torrent

Статистика раздачи
Размер:  1.98 GB   |    Зарегистрирован:  3 месяца 7 дней   |    .torrent скачан:  62 раза   |   
Раздают:  1  
   
загрузка...
 
Автор Сообщение

Galfimbul

avatar Galfimbul


Жар-птица: Глава о космосе / Hi no Tori: Uchuu Hen
Страна: Япония
Год выпуска: 1987
Жанр: фантастика, драма
Тип: OVA
Продолжительность: 1 эп. 48 мин
Режиссёр: Кавадзири Ёсиаки
Автор оригинала: Тэдзука Осаму
Снято по манге: Hi no Tori: Uchuu Hen
Студия: Madhouse Studios
Озвучка:
Многоголосная Azazel & Henesy & Ursula & NIKITOS (SHIZA Project)
Субтитры:
русские (внешние) SRT полные
от Daidzobu
английские (встроенные) ASS полные
от Lupin Gang
Описание: Экранизация третьей части саги о Жар-птице, составленной на основе манги Тезуки Осамы.
Экипажу погибшего космического коробля, придется столкнуться с жестокими испытаниями, чтобы сохранить свои жизни.
Информационные ссылки: AniDB | MyAnimeList | World Art
Качество: DVDRip (R2J)
Релиз/Автор рипа: Beatrice-Raws/Mulder
Совместимость с бытовыми плеерами: Нет
Наличие линковки: Нет
Тип видео: без хардсаба
Формат: MKV
Видео: x264, 714x540, (4/3), ~5495кбит/с, 23,976fps, 10 bit
Аудио #1 (внешняя) русская - MP3, 2 ch, 192кбит/с, 48000Hz
Аудио #2 (в контейнере) японская - AC3, 2 ch, 192кбит/с, 48000Hz
* Чтобы смотреть с озвучкой, необходимо из папки Rus sound переписать файл в папку, где находятся видеофайл. Далее, следует запустить плеер и переключиться на mka-дорожку. Подробное описание здесь
* Чтобы смотреть 10-битное видео (10bit), необходимо, исходя из ваших предпочтений используемого проигрывателя, воспользоваться
этой инструкцией.
* Чтобы смотреть с субтитрами, необходимо из папки Rus subs переписать файл в папку, где находятся видеофайл. В большинстве плееров, одноимённые субтитры подключатся автоматически.

#1 Жар-птица 2772: Космозона любви - п/ф, адаптация манги, 1980
#2 Жар-птица: Глава о Фениксе - п/ф, адаптация манги, 1986
#3 Жар-птица: Глава о Ямато - OVA (1 эп.), адаптация манги, 1987
#4 Жар-птица: Глава о космосе - OVA (1 эп.), адаптация манги, 1987
#5 Жар-птица [ТВ] - ТВ (13 эп.), адаптация манги, 2004
#6 Жар-птица: Глава о платье из перьев - к/ф, адаптация манги, 2004


Общее
Уникальный идентификатор : 172897500973103936285138653989345208456 (0x8212D8F20CABD000AAD6BFF177F0A888)
Полное имя : C:\Торенты №1\Hi no Tori - Uchuu Hen [DVDRip 540p]\[Beatrice] Hi no Tori - Uchuu Hen [DVDRip 714x540 x264 AC3].mkv
Формат : Matroska
Версия формата : Version 4 / Version 2
Размер файла : 1,91 Гбайт
Продолжительность : 48 м.
Общий поток : 5689 Кбит/сек
Дата кодирования : UTC 2018-03-04 11:18:08
Программа кодирования : mkvmerge v19.0.0 ('Brave Captain') 64-bit
Библиотека кодирования : libebml v1.3.5 + libmatroska v1.4.8

Видео
Идентификатор : 1
Формат : AVC
Формат/Информация : Advanced Video Codec
Профиль формата : High [email protected]
Параметр CABAC формата : Да
Параметр ReFrames формата : 5 кадров
Идентификатор кодека : V_MPEG4/ISO/AVC
Продолжительность : 48 м.
Битрейт : 5495 Кбит/сек
Ширина : 714 пикселей
Высота : 540 пикселей
Соотношение сторон : 4:3
Режим частоты кадров : Постоянный
Частота кадров : 23,976 (24000/1001) кадра/сек
Цветовое пространство : YUV
Субдискретизация насыщенности : 4:2:0
Битовая глубина : 10 бит
Тип развёртки : Прогрессивная
Бит/(Пиксели*Кадры) : 0.594
Размер потока : 1,85 Гбайт (97%)
Заголовок : DVDRip by Mulder
Библиотека кодирования : x264 core 148 r2597M e86f3a1 (DJATOM's build)
Настройки программы : cabac=1 / ref=5 / deblock=1:1:-2 / analyse=0x3:0x113 / me=umh / subme=9 / psy=1 / fade_compensate=0.00 / psy_rd=1.00:0.00 / mixed_ref=1 / me_range=32 / chroma_me=1 / trellis=2 / 8x8dct=1 / cqm=0 / deadzone=21,11 / fast_pskip=1 / chroma_qp_offset=-2 / threads=6 / lookahead_threads=1 / sliced_threads=0 / nr=0 / decimate=1 / interlaced=0 / bluray_compat=0 / constrained_intra=0 / bframes=6 / b_pyramid=2 / b_adapt=2 / b_bias=0 / direct=1 / weightb=1 / open_gop=0 / weightp=2 / keyint=250 / keyint_min=23 / scenecut=40 / intra_refresh=0 / rc=crf / mbtree=0 / crf=14.5000 / qcomp=0.72 / qpmin=0 / qpmax=81 / qpstep=4 / ip_ratio=1.40 / pb_ratio=1.30 / aq=1:0.85
Язык : Japanese
Default : Да
Forced : Нет
Цветовой диапазон : Limited
Основные цвета : BT.601 NTSC
Характеристики трансфера : BT.601
Коэффициенты матрицы : BT.601

Аудио
Идентификатор : 2
Формат : AC-3
Формат/Информация : Audio Coding 3
Расширение режима : CM (complete main)
Параметр Endianness формата : Big
Идентификатор кодека : A_AC3
Продолжительность : 48 м.
Вид битрейта : Постоянный
Битрейт : 192 Кбит/сек
Каналы : 2 канала
Расположение каналов : Front: L R
Частота : 48,0 КГц
Частота кадров : 31,250 кадров/сек (1536 spf)
Метод сжатия : С потерями
Размер потока : 66,1 Мбайт (3%)
Заголовок : Audio from DVD
Язык : Japanese
Default : Да
Forced : Нет

Текст
Идентификатор : 3
Формат : ASS
Идентификатор кодека : S_TEXT/ASS
Идентификатор кодека/Информация : Advanced Sub Station Alpha
Продолжительность : 43 м.
Битрейт : 92 бит/сек
Count of elements : 452
Метод сжатия : Без потерь
Размер потока : 29,6 Кбайт (0%)
Заголовок : English [LuGa], modified
Язык : English
Default : Да
Forced : Нет



Трекер:  [ 12-Мар-2018 16:30 ]

  

Скачать .torrent

Размер .torrent файла 20 KB


Размер: 1.98 GB
Хэш (hash) релиза: 2ad8f14452546c4845a4045f611ed6eb43131ec0
Подписка на обновления:

Еще никто не оставлял запись к записи скачать торрент Жар-птица: Глава о космосе Hi no Tori: Uchuu Hen . Будь первым!

!Обратная связь