Kingsman: The Secret Service | Avast Premier 17.4.2294 Crack | Black Lightning

Скачать через торрент музыку 007 Tomorrow Never Dies: The Original Soundtrack from the Video Game бесплатно без регистрации torrent

Статистика раздачи
Размер:  269 MB   |    Зарегистрирован:  3 месяца 6 дней   |    .torrent скачан:  32 раза   |   
Раздают:  1  
   
загрузка...
 
Автор Сообщение

Galfimbul

avatar Galfimbul


007 Tomorrow Never Dies: The Original Soundtrack from the Video Game

Жанр: Soundtrack
Композитор: Tommy Tallarico
Год выпуска диска: 1999
Производитель диска: US
Издатель (лейбл): Chapter III Records
Номер по каталогу: CHA 0126
Аудиокодек: FLAC (*.flac)
Тип рипа: tracks+.cue
Битрейт аудио: lossless
Продолжительность: 00:38:56
Источник: apl
Наличие сканов: да

Треклист:
1 James Bond Theme 0:57
2 Confrontation 3:49
3 PPK 2:09
4 Detonate 2:35
5 Media Tower 2:16
6 Arms Bazaar 2:10
7 Decoder 2:33
8 Hotel Atlantic 2:04
9 Pressing Engagement 2:29
10 Carver Media 2:13
11 Outpost 2:40
12 Infrared 3:01
13 A New Beginning 2:23
14 Market 1:59
15 Convoy 2:22
16 Alarm 0:28
17 Letter To Paris 2:48
<div class="sp-wrap">
<div class="sp-head folded">Лог создания рипа</div>
<div class="sp-body">

EAC extraction logfile from 17. November 2008, 18:11 for CDTommy Tallarico, Howard Ulyate, Todd Denis, Sonic Mayhem / Tomorrow Never Dies - The Original Soundtrack from the Video Game

Used drive : PLEXTOR CD-R PX-W4824A Adapter: 1 ID: 1Read mode : Secure with NO C2, accurate stream, disable cacheRead offset correction : 98Overread into Lead-In and Lead-Out : No

Used output format : C:\Program Files\FLAC\flac.exe (User Defined Encoder) 192 kBit/s Additional command line options : -5 -V -T "artist=%a" -T "title=%t" -T "album=%g" -T "date=%y" -T "tracknumber=%n" -T "genre=%m" %s %d

Other options : Fill up missing offset samples with silence : Yes Delete leading and trailing silent blocks : No Native Win32 interface for Win NT & 2000

Track 1 Filename D:\Music\Tomorrow Never Dies - The Original Soundtrack from the Video Game [FLAC]\01 - James Bond Theme.wav

Pre-gap length 0:00:02.00

Peak level 84.1 % Track quality 100.0 % Test CRC 5BE42663 Copy CRC 5BE42663 Copy OK

Track 2 Filename D:\Music\Tomorrow Never Dies - The Original Soundtrack from the Video Game [FLAC]\02 - Confrontation.wav

Pre-gap length 0:00:00.64

Peak level 84.1 % Track quality 100.0 % Test CRC F6B3765A Copy CRC F6B3765A Copy OK

Track 3 Filename D:\Music\Tomorrow Never Dies - The Original Soundtrack from the Video Game [FLAC]\03 - PPK.wav

Pre-gap length 0:00:01.21

Peak level 97.7 % Track quality 100.0 % Test CRC 9A156B93 Copy CRC 9A156B93 Copy OK

Track 4 Filename D:\Music\Tomorrow Never Dies - The Original Soundtrack from the Video Game [FLAC]\04 - Detonate.wav

Pre-gap length 0:00:01.33

Peak level 99.9 % Track quality 99.9 % Test CRC FC433C7D Copy CRC FC433C7D Copy OK

Track 5 Filename D:\Music\Tomorrow Never Dies - The Original Soundtrack from the Video Game [FLAC]\05 - Media Tower.wav

Pre-gap length 0:00:01.45

Peak level 84.1 % Track quality 99.9 % Test CRC 99DAD5BD Copy CRC 99DAD5BD Copy OK

Track 6 Filename D:\Music\Tomorrow Never Dies - The Original Soundtrack from the Video Game [FLAC]\06 - Arms Bazaar.wav

Pre-gap length 0:00:01.33

Peak level 87.0 % Track quality 100.0 % Test CRC 54D6EC12 Copy CRC 54D6EC12 Copy OK

Track 7 Filename D:\Music\Tomorrow Never Dies - The Original Soundtrack from the Video Game [FLAC]\07 - Decoder.wav

Pre-gap length 0:00:01.86

Peak level 79.4 % Track quality 100.0 % Test CRC 3CC23058 Copy CRC 3CC23058 Copy OK

Track 8 Filename D:\Music\Tomorrow Never Dies - The Original Soundtrack from the Video Game [FLAC]\08 - Hotel Atlantic.wav

Pre-gap length 0:00:00.97

Peak level 84.1 % Track quality 100.0 % Test CRC AE6B117E Copy CRC AE6B117E Copy OK

Track 9 Filename D:\Music\Tomorrow Never Dies - The Original Soundtrack from the Video Game [FLAC]\09 - Pressing Engagement.wav

Pre-gap length 0:00:01.13

Peak level 84.1 % Track quality 100.0 % Test CRC A40BDA72 Copy CRC A40BDA72 Copy OK

Track 10 Filename D:\Music\Tomorrow Never Dies - The Original Soundtrack from the Video Game [FLAC]\10 - Carver Media.wav

Pre-gap length 0:00:00.89

Peak level 84.1 % Track quality 100.0 % Test CRC 4EEC2691 Copy CRC 4EEC2691 Copy OK

Track 11 Filename D:\Music\Tomorrow Never Dies - The Original Soundtrack from the Video Game [FLAC]\11 - Outpost.wav

Pre-gap length 0:00:02.14

Peak level 74.9 % Track quality 100.0 % Test CRC 219E1E8F Copy CRC 219E1E8F Copy OK

Track 12 Filename D:\Music\Tomorrow Never Dies - The Original Soundtrack from the Video Game [FLAC]\12 - Infrared.wav

Pre-gap length 0:00:00.92

Peak level 79.4 % Track quality 100.0 % Test CRC 32C6D302 Copy CRC 32C6D302 Copy OK

Track 13 Filename D:\Music\Tomorrow Never Dies - The Original Soundtrack from the Video Game [FLAC]\13 - A New Beginning.wav

Pre-gap length 0:00:01.37

Peak level 84.1 % Track quality 100.0 % Test CRC 0F344DAB Copy CRC 0F344DAB Copy OK

Track 14 Filename D:\Music\Tomorrow Never Dies - The Original Soundtrack from the Video Game [FLAC]\14 - Market.wav

Pre-gap length 0:00:01.33

Peak level 84.1 % Track quality 100.0 % Test CRC 675BA855 Copy CRC 675BA855 Copy OK

Track 15 Filename D:\Music\Tomorrow Never Dies - The Original Soundtrack from the Video Game [FLAC]\15 - Convoy.wav

Pre-gap length 0:00:00.94

Peak level 82.2 % Track quality 100.0 % Test CRC 8CB4AE1C Copy CRC 8CB4AE1C Copy OK

Track 16 Filename D:\Music\Tomorrow Never Dies - The Original Soundtrack from the Video Game [FLAC]\16 - Alarm.wav

Pre-gap length 0:00:01.41

Peak level 84.1 % Track quality 100.0 % Test CRC D5E04D1A Copy CRC D5E04D1A Copy OK

Track 17 Filename D:\Music\Tomorrow Never Dies - The Original Soundtrack from the Video Game [FLAC]\17 - Letter to Paris.wav

Pre-gap length 0:00:01.89

Peak level 100.0 % Track quality 100.0 % Test CRC 14DEFD6C Copy CRC 14DEFD6C Copy OK

No errors occured

End of status report
PERFORMER "Tommy Tallarico, Howard Ulyate, Todd Denis, Sonic Mayhem"TITLE "Tomorrow Never Dies - The Original Soundtrack from the VideoGame"FILE "01 - James Bond Theme.wav" WAVE TRACK 01 AUDIO TITLE "James Bond Theme" PERFORMER "Tommy Tallarico, Howard Ulyate, Todd Denis, Sonic Mayhem" INDEX 01 00:00:00 TRACK 02 AUDIO TITLE "Confrontation" PERFORMER "Tommy Tallarico, Howard Ulyate, Todd Denis, Sonic Mayhem" INDEX 00 00:55:67FILE "02 - Confrontation.wav" WAVE INDEX 01 00:00:00 TRACK 03 AUDIO TITLE "PPK" PERFORMER "Tommy Tallarico, Howard Ulyate, Todd Denis, Sonic Mayhem" INDEX 00 03:48:04FILE "03 - PPK.wav" WAVE INDEX 01 00:00:00 TRACK 04 AUDIO TITLE "Detonate" PERFORMER "Tommy Tallarico, Howard Ulyate, Todd Denis, Sonic Mayhem" INDEX 00 02:08:02FILE "04 - Detonate.wav" WAVE INDEX 01 00:00:00 TRACK 05 AUDIO TITLE "Media Tower" PERFORMER "Tommy Tallarico, Howard Ulyate, Todd Denis, Sonic Mayhem" INDEX 00 02:33:46FILE "05 - Media Tower.wav" WAVE INDEX 01 00:00:00 TRACK 06 AUDIO TITLE "Arms Bazaar" PERFORMER "Tommy Tallarico, Howard Ulyate, Todd Denis, Sonic Mayhem" INDEX 00 02:14:35FILE "06 - Arms Bazaar.wav" WAVE INDEX 01 00:00:00 TRACK 07 AUDIO TITLE "Decoder" PERFORMER "Tommy Tallarico, Howard Ulyate, Todd Denis, Sonic Mayhem" INDEX 00 02:08:33FILE "07 - Decoder.wav" WAVE INDEX 01 00:00:00 TRACK 08 AUDIO TITLE "Hotel Atlantic" PERFORMER "Tommy Tallarico, Howard Ulyate, Todd Denis, Sonic Mayhem" INDEX 00 02:32:12FILE "08 - Hotel Atlantic.wav" WAVE INDEX 01 00:00:00 TRACK 09 AUDIO TITLE "Pressing Engagement" PERFORMER "Tommy Tallarico, Howard Ulyate, Todd Denis, Sonic Mayhem" INDEX 00 02:02:47FILE "09 - Pressing Engagement.wav" WAVE INDEX 01 00:00:00 TRACK 10 AUDIO TITLE "Carver Media" PERFORMER "Tommy Tallarico, Howard Ulyate, Todd Denis, Sonic Mayhem" INDEX 00 02:28:23FILE "10 - Carver Media.wav" WAVE INDEX 01 00:00:00 TRACK 11 AUDIO TITLE "Outpost" PERFORMER "Tommy Tallarico, Howard Ulyate, Todd Denis, Sonic Mayhem" INDEX 00 02:11:02FILE "11 - Outpost.wav" WAVE INDEX 01 00:00:00 TRACK 12 AUDIO TITLE "Infrared" PERFORMER "Tommy Tallarico, Howard Ulyate, Todd Denis, Sonic Mayhem" INDEX 00 02:38:71FILE "12 - Infrared.wav" WAVE INDEX 01 00:00:00 TRACK 13 AUDIO TITLE "A New Beginning" PERFORMER "Tommy Tallarico, Howard Ulyate, Todd Denis, Sonic Mayhem" INDEX 00 03:00:02FILE "13 - A New Beginning.wav" WAVE INDEX 01 00:00:00 TRACK 14 AUDIO TITLE "Market" PERFORMER "Tommy Tallarico, Howard Ulyate, Todd Denis, Sonic Mayhem" INDEX 00 02:21:25FILE "14 - Market.wav" WAVE INDEX 01 00:00:00 TRACK 15 AUDIO TITLE "Convoy" PERFORMER "Tommy Tallarico, Howard Ulyate, Todd Denis, Sonic Mayhem" INDEX 00 01:58:09FILE "15 - Convoy.wav" WAVE INDEX 01 00:00:00 TRACK 16 AUDIO TITLE "Alarm" PERFORMER "Tommy Tallarico, Howard Ulyate, Todd Denis, Sonic Mayhem" INDEX 00 02:20:64FILE "16 - Alarm.wav" WAVE INDEX 01 00:00:00 TRACK 17 AUDIO TITLE "Letter to Paris" PERFORMER "Tommy Tallarico, Howard Ulyate, Todd Denis, Sonic Mayhem" INDEX 00 00:26:15FILE "17 - Letter to Paris.wav" WAVE INDEX 01 00:00:00
AUDIOCHECKER v2.0 beta (build 457) - by Dester - [email protected]~~~~~~~~~~~~~~~~~~~~~~~~~~~~~~~~~~

Started at: понедельник, 12. 03. 2018. - 13:24.2917 files found

01 -===- C:\Tommy Tallarico - Tomorrow Never Dies Soundtrack From Video Game (1999) [CHA-0126][CD][FLAC]\01 - James Bond Theme.flac Extracted successfully Conclusion: this track is CDDA with probability 100% Tempfile successfully deleted.

02 -===- C:\Tommy Tallarico - Tomorrow Never Dies Soundtrack From Video Game (1999) [CHA-0126][CD][FLAC]\02 - Confrontation.flac Extracted successfully Conclusion: this track is CDDA with probability 100% Tempfile successfully deleted.

03 -===- C:\Tommy Tallarico - Tomorrow Never Dies Soundtrack From Video Game (1999) [CHA-0126][CD][FLAC]\03 - PPK.flac Extracted successfully Conclusion: this track is CDDA with probability 100% Tempfile successfully deleted.

04 -===- C:\Tommy Tallarico - Tomorrow Never Dies Soundtrack From Video Game (1999) [CHA-0126][CD][FLAC]\04 - Detonate.flac Extracted successfully Conclusion: this track is CDDA with probability 100% Tempfile successfully deleted.

05 -===- C:\Tommy Tallarico - Tomorrow Never Dies Soundtrack From Video Game (1999) [CHA-0126][CD][FLAC]\05 - Media Tower.flac Extracted successfully Conclusion: this track is CDDA with probability 100% Tempfile successfully deleted.

06 -===- C:\Tommy Tallarico - Tomorrow Never Dies Soundtrack From Video Game (1999) [CHA-0126][CD][FLAC]\06 - Arms Bazaar.flac Extracted successfully Conclusion: this track is CDDA with probability 99% Tempfile successfully deleted.

07 -===- C:\Tommy Tallarico - Tomorrow Never Dies Soundtrack From Video Game (1999) [CHA-0126][CD][FLAC]\07 - Decoder.flac Extracted successfully Conclusion: this track is CDDA with probability 100% Tempfile successfully deleted.

08 -===- C:\Tommy Tallarico - Tomorrow Never Dies Soundtrack From Video Game (1999) [CHA-0126][CD][FLAC]\08 - Hotel Atlantic.flac Extracted successfully Conclusion: this track is CDDA with probability 100% Tempfile successfully deleted.

09 -===- C:\Tommy Tallarico - Tomorrow Never Dies Soundtrack From Video Game (1999) [CHA-0126][CD][FLAC]\09 - Pressing Engagement.flac Extracted successfully Conclusion: this track is CDDA with probability 100% Tempfile successfully deleted.

10 -===- C:\Tommy Tallarico - Tomorrow Never Dies Soundtrack From Video Game (1999) [CHA-0126][CD][FLAC]\10 - Carver Media.flac Extracted successfully Conclusion: this track is CDDA with probability 100% Tempfile successfully deleted.

11 -===- C:\Tommy Tallarico - Tomorrow Never Dies Soundtrack From Video Game (1999) [CHA-0126][CD][FLAC]\11 - Outpost.flac Extracted successfully Conclusion: this track is CDDA with probability 100% Tempfile successfully deleted.

12 -===- C:\Tommy Tallarico - Tomorrow Never Dies Soundtrack From Video Game (1999) [CHA-0126][CD][FLAC]\12 - Infrared.flac Extracted successfully Conclusion: this track is CDDA with probability 100% Tempfile successfully deleted.

13 -===- C:\Tommy Tallarico - Tomorrow Never Dies Soundtrack From Video Game (1999) [CHA-0126][CD][FLAC]\13 - A New Beginning.flac Extracted successfully Conclusion: this track is CDDA with probability 100% Tempfile successfully deleted.

14 -===- C:\Tommy Tallarico - Tomorrow Never Dies Soundtrack From Video Game (1999) [CHA-0126][CD][FLAC]\14 - Market.flac Extracted successfully Conclusion: this track is CDDA with probability 100% Tempfile successfully deleted.

15 -===- C:\Tommy Tallarico - Tomorrow Never Dies Soundtrack From Video Game (1999) [CHA-0126][CD][FLAC]\15 - Convoy.flac Extracted successfully Conclusion: this track is CDDA with probability 100% Tempfile successfully deleted.

16 -===- C:\Tommy Tallarico - Tomorrow Never Dies Soundtrack From Video Game (1999) [CHA-0126][CD][FLAC]\16 - Alarm.flac Extracted successfully Conclusion: this track is CDDA with probability 100% Tempfile successfully deleted.

17 -===- C:\Tommy Tallarico - Tomorrow Never Dies Soundtrack From Video Game (1999) [CHA-0126][CD][FLAC]\17 - Letter to Paris.flac Extracted successfully Conclusion: this track is CDDA with probability 100% Tempfile successfully deleted.

Finished at: понедельник, 12. 03. 2018. - 13:29.20 (operation time: 0:04.51)
17 files scanned in 2.87 seconds---0 files failed---17 files passedC:\Tommy Tallarico - Tomorrow Never Dies Soundtrack From Video Game (1999) [CHA-0126][CD][FLAC]\01 - James Bond Theme.flacC:\Tommy Tallarico - Tomorrow Never Dies Soundtrack From Video Game (1999) [CHA-0126][CD][FLAC]\02 - Confrontation.flacC:\Tommy Tallarico - Tomorrow Never Dies Soundtrack From Video Game (1999) [CHA-0126][CD][FLAC]\03 - PPK.flacC:\Tommy Tallarico - Tomorrow Never Dies Soundtrack From Video Game (1999) [CHA-0126][CD][FLAC]\04 - Detonate.flacC:\Tommy Tallarico - Tomorrow Never Dies Soundtrack From Video Game (1999) [CHA-0126][CD][FLAC]\05 - Media Tower.flacC:\Tommy Tallarico - Tomorrow Never Dies Soundtrack From Video Game (1999) [CHA-0126][CD][FLAC]\06 - Arms Bazaar.flacC:\Tommy Tallarico - Tomorrow Never Dies Soundtrack From Video Game (1999) [CHA-0126][CD][FLAC]\07 - Decoder.flacC:\Tommy Tallarico - Tomorrow Never Dies Soundtrack From Video Game (1999) [CHA-0126][CD][FLAC]\08 - Hotel Atlantic.flacC:\Tommy Tallarico - Tomorrow Never Dies Soundtrack From Video Game (1999) [CHA-0126][CD][FLAC]\09 - Pressing Engagement.flacC:\Tommy Tallarico - Tomorrow Never Dies Soundtrack From Video Game (1999) [CHA-0126][CD][FLAC]\10 - Carver Media.flacC:\Tommy Tallarico - Tomorrow Never Dies Soundtrack From Video Game (1999) [CHA-0126][CD][FLAC]\11 - Outpost.flacC:\Tommy Tallarico - Tomorrow Never Dies Soundtrack From Video Game (1999) [CHA-0126][CD][FLAC]\12 - Infrared.flacC:\Tommy Tallarico - Tomorrow Never Dies Soundtrack From Video Game (1999) [CHA-0126][CD][FLAC]\13 - A New Beginning.flacC:\Tommy Tallarico - Tomorrow Never Dies Soundtrack From Video Game (1999) [CHA-0126][CD][FLAC]\14 - Market.flacC:\Tommy Tallarico - Tomorrow Never Dies Soundtrack From Video Game (1999) [CHA-0126][CD][FLAC]\15 - Convoy.flacC:\Tommy Tallarico - Tomorrow Never Dies Soundtrack From Video Game (1999) [CHA-0126][CD][FLAC]\16 - Alarm.flacC:\Tommy Tallarico - Tomorrow Never Dies Soundtrack From Video Game (1999) [CHA-0126][CD][FLAC]\17 - Letter to Paris.flac
[AccurateRip ID: 00188b90-013784d2-e4092011] found.Track [ CRC | V2 ] Status 01 [6c821cba|6f451fe3] (0+5/5) Accurately ripped 02 [697a43c5|78af615e] (0+5/5) Accurately ripped 03 [fa6d6193|ab3aaa2f] (0+5/5) Accurately ripped 04 [4c12d57e|050e29fc] (0+5/5) Accurately ripped 05 [397856dc|2ef71b74] (0+5/5) Accurately ripped 06 [8b74b74f|19c1e385] (0+5/5) Accurately ripped 07 [9d8a780a|aeb14df8] (0+5/5) Accurately ripped 08 [d2c3e17d|fa300493] (0+5/5) Accurately ripped 09 [287a4edb|e25bd0ba] (0+5/5) Accurately ripped 10 [3684c6d0|2a575aa2] (0+5/5) Accurately ripped 11 [f5cc6c8b|0b2f19a3] (0+5/5) Accurately ripped 12 [e3ebcd5f|9a508eae] (0+5/5) Accurately ripped 13 [29a477ec|df4fec94] (0+5/5) Accurately ripped 14 [6be1ee1f|617b85d3] (0+5/5) Accurately ripped 15 [d417d1c7|d18919cf] (0+5/5) Accurately ripped 16 [6103323b|8371d552] (0+5/5) Accurately ripped 17 [3512c789|93325e7f] (0+5/5) Accurately ripped
</div>
</div>
Track 17: Bonus Track, does not appear in Video Game.
Vocals – Elaine Paiva (tracks: 17)

http://www.discogs.com/Tommy-Tallarico-Tomorrow-Never-Dies-The-Original-Soundtrack-From-The-Video-Game/release/2194187
Music composed by: Tommy Tallarico, Howard Ulyate, Sonic Mayhem & Todd Dennis, except "James Bond Theme" written by Monty Norman. Tracks 2-16 also include portions from "James Bond Theme."

Monty Norman: 1
Sonic Mayhem: 2, 3, 6, 12
Tommy Tallarico, Howard Ulyate, Todd Dennis: 4, 5, 7-11, 13-16
Tommy Tallarico: 17

Produced By: Tommy Tallarico
Executive Producer: Randy Gerston

"Letter To Paris" written by Tommy Tallarico
Vocals: Elaine Paiva
Lead Guitar: Mike Hamilton
Bass & Acoustic Guitar: Joe McLaughlin
Piano, Orchestra & Drums: Tommy Tallarico

Track 17 doesn't appear in the game.
Доп. информация:

Трекер:  [ 12-Мар-2018 14:06 ]

  

Скачать .torrent

Размер .torrent файла 22 KB


Размер: 269 MB
Хэш (hash) релиза: d76fc0cfe0e3ccc20bb2df339453335f97d53b1d

Еще никто не оставлял запись к записи скачать торрент 007 Tomorrow Never Dies: The Original Soundtrack from the Video Game . Будь первым!

!Обратная связь