A Bad Moms Christmas 2017 MULTi TRUEFRENCH 1080p BluRay Light x264 AC3-ACOOL
Bring Me The Horizon

Скачать через торрент [SERIAL] Тьма Dark бесплатно русская версия torrent активатор

Статистика раздачи
Размер:  2.2 GB   |    Зарегистрирован:  1 месяц 7 дней   |    .torrent скачан:  26 раз   |   
Раздают:  1  
   
загрузка...
 
Автор Сообщение

Galfimbul

avatar Galfimbul


Тьма / Dark

Год выпуска: 2017

Страна: Германия
Жанр: триллер, драма, криминал, детектив
Продолжительность: 10 x ~00:47:00
Перевод: Профессиональный (многоголосый закадровый) NewStudio
Субтитры: нет
Оригинальная аудиодорожка: нет

Режиссер: Баран бо Одар / Baran bo Odar
В ролях: Оливер Мазуччи, Каролина Эйхгорн, Йордис Трибель, Луис Хофманн, Майя Шёне, Штефан Кампвирт, Daan Lennard Liebrenz, Андреас Пичман, Дебора Кауфман, Татя Зайбт, Лиза Викари, Paul Lux
Описание: История четырёх семей, живущих спокойной и размеренной жизнью в маленьком немецком городке. Видимая идиллия рушится, когда бесследно исчезают двое детей и воскресают тёмные тайны прошлого.

Сэмпл | КИНОПОИСК | IMDB

Исходник: Generalfilm
Качество: WEBRip
Формат: MP4
Видео: MPEG-4 AVC (x264), 640x320, ~500 kbps, 24.000 fps
Аудио: AAC LC, 48.0 KHz, 2 ch, 128 Kbps
01. Secrets / Секреты
02. Lies / Ложь
03. Past and Present / Прошлое и настоящее
04. Double Lives / Двойные жизни
05. Truths / Правда
06. Sic Mundus Creatus Est / Так был создан мир
07. Crossroads / Перекрёстки
08. As You Sow, so You Shall Reap / Что посеял, то и пожнешь
09. Everything Is Now / Всё сейчас
10. Alpha and Omega / Альфа и омега
Complete name : F:КИНОT'ma.AVC.KPK.GFT'ma.S01.2017.AVC.WEBRip.KPK.NS.GFT'ma.s01e04.2017.AVC.WEBRip.KPK.NS.GF.mp4Format : MPEG-4Codec ID : M4V (isom/iso2/avc1)File size : 214 MiBDuration : 47 min 28 sOverall bit rate mode : VariableOverall bit rate : 631 kb/sWriting application : Lavf53.19.0

VideoID : 1Format : AVCFormat/Info : Advanced Video CodecFormat profile : [email protected] settings, CABAC : YesFormat settings, RefFrames : 8 framesCodec ID : avc1Codec ID/Info : Advanced Video CodingDuration : 47 min 28 sSource duration : 4 min 31 sBit rate : 500 kb/sWidth : 640 pixelsHeight : 320 pixelsDisplay aspect ratio : 2.000Frame rate mode : ConstantFrame rate : 24.000 FPSColor space : YUVChroma subsampling : 4:2:0Bit depth : 8 bitsScan type : ProgressiveBits/(Pixel*Frame) : 0.102Stream size : 169 MiB (79%)Source stream size : 169 MiB (79%)Writing library : x264 core 148 r2638 7599210Encoding settings : cabac=1 / ref=8 / deblock=1:-2:-2 / analyse=0x3:0x133 / me=umh / subme=10 / psy=1 / psy_rd=1.00:0.00 / mixed_ref=1 / me_range=24 / chroma_me=1 / trellis=2 / 8x8dct=1 / cqm=0 / deadzone=21,11 / fast_pskip=1 / chroma_qp_offset=-2 / threads=6 / lookahead_threads=1 / sliced_threads=0 / nr=0 / decimate=0 / interlaced=0 / bluray_compat=0 / constrained_intra=0 / bframes=8 / b_pyramid=2 / b_adapt=2 / b_bias=0 / direct=3 / weightb=1 / open_gop=0 / weightp=2 / keyint=240 / keyint_min=121 / scenecut=40 / intra_refresh=0 / rc_lookahead=40 / rc=2pass / mbtree=1 / bitrate=500 / ratetol=1.0 / qcomp=0.60 / qpmin=0 / qpmax=69 / qpstep=4 / cplxblur=20.0 / qblur=0.5 / ip_ratio=1.40 / aq=1:1.00Menus : 3mdhd_Duration : 2848252

AudioID : 2Format : AACFormat/Info : Advanced Audio CodecFormat profile : LCCodec ID : 40Duration : 47 min 13 sBit rate mode : VariableBit rate : 128 kb/sChannel(s) : 2 channelsChannel positions : Front: L RSampling rate : 48.0 kHzFrame rate : 46.875 FPS (1024 SPF)Compression mode : LossyStream size : 43.2 MiB (20%)Default : YesAlternate group : 1Menus : 3


Трекер:  [ 12-Мар-2018 10:42 ]

  

Скачать .torrent

Размер .torrent файла 23 KB


Размер: 2.2 GB
Хэш (hash) релиза: 156969ef59314a48841ece2d3ef179e3a02c109e

Еще никто не оставлял запись к записи скачать торрент [SERIAL] Тьма Dark . Будь первым!

!Обратная связь