Inazuma Eleven | Michael B. Jordan | Elle UK – July 2018

Скачать через торрент Невозможная женщина Серии: 1-4 из 4 Фильм бесплатно в хорошем качестве torrent

Скачивайте на UnionPeer.org фильмы через торрент без регистрации. Новинки кино в хорошем качестве через торрент. На UnionPeer.org можно скачать через торрент фильмы 2014 и 2015 годов. Самые новые фильмы.

Скачать торрент Невозможная женщина Серии: 1-4 из 4 бесплатно через .torrent фильм мультфильм сериал

Статистика раздачи
Размер:  2.74 GB   |    Зарегистрирован:  3 месяца 7 дней   |    .torrent скачан:  73 раза   |   
Раздают:  1  
   
загрузка...
 
Автор Сообщение

Galfimbul

avatar Galfimbul


Невозможная женщина

Год выпуска: 2018
Производство: Кинокомпания "Арт-Экспресс"
Жанр: мелодрама
Продолжительность: ~00:44:00 серия
Субтитры: нет

Режиссёр: Ольга Басова, Владимир Басов мл.

В ролях: Мария Аниканова, Ярослав Бойко, Полина Филоненко, Людмила Гаврилова, Владимир Басов (младший), Юлианна Михневич, Дмитрий Пустильник, Мария Возба, Николай Зимич, Валентина Белько, Игорь Денисов

Описание: Татьяна Муравьева — известная писательница, автор детективных романов. Несмотря на свою популярность, героиня одинока. Два ее предыдущих брака сложились неудачно, и теперь она окончательно разочаровалась в мужчинах.
Когда Татьяна узнает, что на месте ее любимой старенькой дачи в Свешнево планируется строительство крупного бизнес-центра, она возглавляет протестное движение дачников.
Тем временем племянница Татьяны — Лиза начинает встречаться с Виктором Максаковым — главой той самой строительной компании, которая собирается отобрать землю в Свешнево. Лизе удается произвести впечатление на Виктора. Ей кажется, что ее мечта о богатой жизни вот-вот сбудется… Чтобы понять, как остановить склочную писательницу, Максаков нанимается к ней на дачу строить навес над крыльцом в качестве… обычного рабочего…

Реклама: Нет.

Кинопоиск

Sample

Качество: WEBRip - Files-x
Формат: AVI
Видео кодек: XviD
Аудио кодек: AC3
Видео: 720x400 (1.80:1), 25 fps, XviD build 73 ~2050 kbps avg, 0.284 bit/pixel
Аудио: 48.0 kHz, AC3 Dolby Digital, 2/0 (L,R) ch, ~ 192 kbps
General
Complete name : D:\Nevozmoznaja.zenxchina.2018.WEB-DLRip.Files-x\01.Nevozmoznaja.zenxchina.2018.WEB-DLRip.Files-x.avi
Format : AVI
Format/Info : Audio Video Interleave
File size : 1.37 GiB
Duration : 1h 27mn
Overall bit rate : 2 248 Kbps
Writing application : VirtualDubMod 1.5.10.3 | www.virtualdub-fr.org || (build 2550/release)
Writing library : VirtualDubMod build 2550/release

Video
ID : 0
Format : MPEG-4 Visual
Format profile : Advanced [email protected]
Format settings, BVOP : 1
Format settings, QPel : No
Format settings, GMC : No warppoints
Format settings, Matrix : Custom
Codec ID : XVID
Codec ID/Hint : XviD
Duration : 1h 27mn
Bit rate : 2 046 Kbps
Width : 720 pixels
Height : 400 pixels
Display aspect ratio : 16:9
Frame rate : 25.000 fps
Color space : YUV
Chroma subsampling : 4:2:0
Bit depth : 8 bits
Scan type : Progressive
Compression mode : Lossy
Bits/(Pixel*Frame) : 0.284
Stream size : 1.25 GiB (91%)
Writing library : XviD 73

Audio
ID : 1
Format : AC-3
Format/Info : Audio Coding 3
Mode extension : CM (complete main)
Format settings, Endianness : Big
Codec ID : 2000
Duration : 1h 27mn
Bit rate mode : Constant
Bit rate : 192 Kbps
Channel count : 2 channels
Channel positions : Front: L R
Sampling rate : 48.0 KHz
Bit depth : 16 bits
Compression mode : Lossy
Stream size : 120 MiB (9%)
Alignment : Split accross interleaves
Interleave, duration : 40 ms (1.00 video frame)
Interleave, preload duration : 500 ms


Трекер:  [ 12-Мар-2018 08:18 ]

  

Скачать .torrent

Размер .torrent файла 14 KB


Размер: 2.74 GB
Хэш (hash) релиза: 463a2d776a7d7cdb481a148728852d01e5a82e0c
Подписка на обновления:

Торренты, похожие на Невозможная женщина Серии: 1-4 из 4 скачать торрент

Форум Название Автор Размер S L Добавлен
Российские сериалы ·· Невозможная женщина / Серии: 1-4 из 4 (Ольга Басова, Владимир Басов мл.) [2018, мелодрама, HDTVRip 720p] Galfimbul 54066926285.04 GB 0 0 1520874776

20:12

12-Мар-18

Еще никто не оставлял запись к записи скачать торрент Невозможная женщина Серии: 1-4 из 4 . Будь первым!

!Обратная связь