Ripper Street | TERLUKA - LILIN HERLINA - NEW PALLAPA | Google ポッドキャスト

Скачать через торрент Инуясики Inuyashiki бесплатно Аниме Все серии на русском torrent

Статистика раздачи
Размер:  5.39 GB   |    Зарегистрирован:  4 месяца 9 дней   |    .torrent скачан:  34 раза   |   
Раздают:  1  
   
загрузка...
 
Автор Сообщение

Galfimbul

avatar Galfimbul



Год выпуска: 2017
Страна: Япония
Жанр: приключения, фантастика, драма
Продолжительность: TV, 11 эп. по 25 мин.
Режиссер: Сато Кэйити
Студия: MAPPA
Выпуск: с 13.10.2017 по 22.12.2017
Описание:
Итиро Инуясики мужчина 58 лет. Семья, в лице жены и двух детей, полностью игнорирует мужчину, несмотря на то, что он для них сделал. Вдобавок ко всему, лечащий врач ставит герою неутешительный диагноз — рак, констатируя, что жить ему осталось совсем немного. Казалось бы, дела не могут пойти ещё хуже, но однажды Инуясики видит, как ослепляющий свет озаряет звёздное небо. С этого момента жизнь главного героя сильно меняется, и теперь ему нужно привыкать ко всему новому.© Supremacy .
Информационные ссылки: AniDB || World Art || MAL
Качество: BDRip
Автор рипа: DJATOM & Horodep [Beatrice-Raws]
Тип релиза: Без хардсаба; без линковки; с главами
Формат видео: MKV
Видео: MPEG4(х264); 10 bit; 1920x1080; ~4 700 Кбит/сек; 23.976 кадра/сек
Аудио JAP: FLAC; 48kHz; 2ch; ~1 400 Кбит/сек
Аудио RUS (ext): AAC; 48kHz; 2ch; ~192 Кбит/сек; озвучено: Студийная Банда
Аудио RUS (ext): многоголосая: Татьяна Борзова & Ирина Зиновкина & Сергей Кубасян & Анна Мосолова &
Аудио RUS (ext): Давид Петросян & Полина Ртищева & Александр Русаков & Влад Токарев
Субтитры RUS: ASS; внешние; перевод: Bazaar Zetsubou
Субтитры RUS: переводчики: Бульбазавр, Dark Nogard, редактор: SYMRAK
Субтитры ENG: ASS; внешние; перевод: HorribleSubs
01. Ичиро Инуясики
02. Хиро Сисигами
03. Науоюки Андо
04. Самэдзима
05. Юко Сисигами

06. Задроты Двача
07. Сион Ватанабэм
08. Мари Инуясики
09. Люди Синдзюку
10. Жители Токио
11. Земляне
Эта раздача — BDRip

antiBILLotic - BDRemuxBomuto - HDTVRip, не законченаDeadLine-Studio - WEBRip , не законченаwestgun007 - WEBRip , не закончена

GeneralUnique ID : 188541505109061782627840105252753124080 (0x8DD7C5E645E785B49BF5E94027F62AF0)Complete name : \Inuyashiki [BDRip 1080p x264 FLAC]\[Beatrice-Raws] Inuyashiki 03 [BDRip 1920x1080 x264 FLAC].mkvFormat : MatroskaFormat version : Version 4 / Version 2File size : 993 MiBDuration : 22 min 54 sOverall bit rate mode : VariableOverall bit rate : 6 062 kb/sEncoded date : UTC 2018-03-11 20:55:52Writing application : mkvmerge v8.2.0 ('World of Adventure') 64bitWriting library : libebml v1.3.1 + libmatroska v1.4.2

VideoID : 1Format : AVCFormat/Info : Advanced Video CodecFormat profile : High [email protected] settings, CABAC : YesFormat settings, RefFrames : 4 framesCodec ID : V_MPEG4/ISO/AVCDuration : 22 min 54 sBit rate : 4 635 kb/sWidth : 1 920 pixelsHeight : 1 080 pixelsDisplay aspect ratio : 16:9Frame rate mode : ConstantFrame rate : 23.976 (24000/1001) FPSColor space : YUVChroma subsampling : 4:2:0Bit depth : 10 bitsScan type : ProgressiveBits/(Pixel*Frame) : 0.093Stream size : 760 MiB (76%)Title : BDRip by DJATOM & HorodepWriting library : x264 core 152 r2851 ba24899 (DJATOM's build)Encoding settings : cabac=1 / ref=4 / deblock=1:1:-1 / analyse=0x3:0x113 / me=umh / subme=9 / psy=1 / psy_rd=1.00:0.00 / mixed_ref=1 / me_range=32 / chroma_me=1 / trellis=2 / 8x8dct=1 / cqm=0 / deadzone=21,11 / fast_pskip=1 / chroma_qp_offset=-2 / threads=34 / lookahead_threads=5 / sliced_threads=0 / nr=0 / decimate=1 / interlaced=0 / bluray_compat=0 / constrained_intra=0 / bframes=9 / b_pyramid=2 / b_adapt=2 / b_bias=0 / direct=1 / weightb=1 / open_gop=0 / weightp=2 / keyint=250 / keyint_min=23 / scenecut=40 / intra_refresh=0 / rc=crf / mbtree=0 / crf=15.5000 / qcomp=0.72 / qpmin=0 / qpmax=81 / qpstep=4 / ip_ratio=1.40 / pb_ratio=1.30 / aq=1:0.85Language : JapaneseDefault : YesForced : NoColor range : LimitedColor primaries : BT.709Transfer characteristics : BT.709Matrix coefficients : BT.709

AudioID : 2Format : FLACFormat/Info : Free Lossless Audio CodecCodec ID : A_FLACDuration : 22 min 54 sBit rate mode : VariableBit rate : 1 425 kb/sChannel(s) : 2 channelsChannel positions : Front: L RSampling rate : 48.0 kHzFrame rate : 11.719 FPS (4096 SPF)Bit depth : 24 bitsStream size : 233 MiB (24%)Title : LPCM->FLACWriting library : libFLAC 1.3.2 (UTC 2017-01-01)Language : JapaneseDefault : YesForced : No

Menu00:00:00.000 : en:Avant00:01:24.042 : en:OP00:02:54.049 : en:Part A00:12:25.119 : en:Part B00:21:23.199 : en:ED

Выбор видео, перевода, осуществляется релизером и не подлежит обсуждению. Если вы считаете, что раздаваемый материал противоречит правилам раздела "Аниме" rutracker.org, сообщите об этом одному из модераторов раздела.
Данный релиз предназначен для просмотра на ПК. Воспроизведение на иных проигрывателях не гарантируется.
Данный релиз содержит 10-битное видео (Hi10p). Для корректного воспроизведения обязательно используйте кодеки, поддерживающие 10-битное видео.
Обсудить проблемы с воспроизведением и получить дополнительную информацию можно здесь.

Данный релиз предназначен для просмотра с внешними субтитрами и внешними звуковыми дорожками.

Для просмотра с субтитрами нужно:

установить шрифты из папки "RUS Subs » Fonts";
скопировать файлы .ass из папки "RUS Subs" в одну папку с видео - плеер подгрузит их автоматически при открытии видео.

Для просмотра с внешней звуковой дорожкой нужно:

скопировать файлы .mka из папки "RUS Sound" в одну папку с видео и переключить звуковую дорожку в плеере при просмотре.
Как это сделать в разных плеерах подробно описано здесь;

Если у вас возникли проблемы с просмотром, не связанные с описанным выше, сообщите о них автору раздачи посредством сообщения в теме или ЛС Horodep.


Трекер:  [ 12-Мар-2018 01:01 ]

  

Скачать .torrent

Размер .torrent файла 29 KB


Размер: 5.39 GB
Хэш (hash) релиза: a9a0cb5f2df8e81fb4de990f58d40dda909d268e
Подписка на обновления:

Торренты, похожие на Инуясики Inuyashiki скачать торрент

Форум Название Автор Размер S L Добавлен
Аниме | HD Rips ·· Инуясики / Inuyashiki [TV] [1-5 из 11] [без хардсаба] [RUS(ext), JAP+SUB] [2017, приключения, фантастика, драма, сэйнэн, BDRemux] [1080p] Galfimbul 3409849225931.76 GB 0 0 1520625714

23:01

9-Мар-18

Аниме | HD Rips ·· Инуясики / Inuyashiki [TV] [01-02 из 11] [Без хардсаба] [RUS(int), JAP+SUB] [2017, приключения, фантастика, драма, сэйнэн, WEBRip] [1080p] Galfimbul 13546777601.26 GB 0 0 1508605347

20:02

21-Окт-17

Аниме | HD Rips ·· Инуясики / Inuyashiki [TV] [01 из 11] [Без хардсаба] [RUS(int), JAP+SUB] [2017, приключения, фантастика, драма, сэйнэн, WEBRip] [720p] Galfimbul 344704788329 MB 0 0 1508515349

19:02

20-Окт-17

Аниме | HD Rips ·· Инуясики / Inuyashiki / Инуяшики [TV] [01 из 11] [Без хардсаба] [JAP+SUB] [2017, приключения, фантастика, драма, сэйнэн, HDTVRip] [720p] Galfimbul 372120166355 MB 0 0 1507842189

00:03

13-Окт-17

Аниме | Rips ·· Инуяшики / Inuyashiki / Инуясики / Last Hero [TV] [2 из 12] [Без хардсаба] [RUS(int), JAP+SUB] [2017, приключения, фантастика, сейнен, психодел, драма] [HDTVRip] [720p] Galfimbul 730873808697 MB 0 0 1509483827

00:03

1-Ноя-17

Еще никто не оставлял запись к записи скачать торрент Инуясики Inuyashiki . Будь первым!

!Обратная связь