Christine Lakin | The Eccentric Family | Ljudozder Vegetarijanac

Скачать через торрент Кровь Beulreodeu Фильм бесплатно в хорошем качестве torrent

Скачивайте на UnionPeer.org фильмы через торрент без регистрации. Новинки кино в хорошем качестве через торрент. На UnionPeer.org можно скачать через торрент фильмы 2014 и 2015 годов. Самые новые фильмы.

Скачать торрент Кровь Beulreodeu бесплатно через .torrent фильм мультфильм сериал

Статистика раздачи
Размер:  5.62 GB   |    Зарегистрирован:  4 месяца 6 дней   |    .torrent скачан:  30 раз   |   
Раздают:  1  
   
загрузка...
 
Автор Сообщение

Galfimbul

avatar Galfimbul


Кровь / Beulreodeu / Blood

Страна: Южная Корея
Год выпуска: 2015
Жанр: медицина, романтика, фантастика, драма, вампиры
Продолжительность: 20 серий по 60 мин.
Режиссер: Ки Мин Су, Ли Джэ Хун
В ролях: Ан Джэ Хён, Гу Хе Сон, Чжи Чжин Хи, Ким Гап Су
Ким Ю Сок, Ли Дон Хун, Чон Хи Тэ, Чон Сок Ён, Ну Эль, Чон Хе Сон, Сон Сук, Пак Джун Мок, Кан Ый Сик и др.
Перевод: Двухголосая озвучка
Озвучка: GREEN TEA Ярослав Мельник и Кириченко Марина

Дополнительно:Перевод выполнен при поддержке ClubFate
Перевод:Наталия Чен, Мария Беликова, Эльза Нордж, Майя Московская, Агата Клинцова, Анна Окидзуке
Редакция:Жанна Ли

Описание: История о враче-вампире.
Пак Джи Сан (Ан Джэ Хён) красив, богат, умен, заведующий отделением общей онкологии в больнице. Его родители были инфицированы вирусом "вампира". И он соответственно родился вампиром. Чтобы стать человеком, он проводит клинические исследования. Свои вампирские способности использует во благо людям.
Ю Ри Та (Гу Хе Сон) работает врачом в больнице, которой владеет ее дядя. Выросла в богатой, благополучной семье, поэтому избалована и высокомерна. Однажды в детстве заблудилась в лесу, и ее спас мальчик. Ей навсегда запомнился этот случай.
Ли Джэ Ук (Чжи Чжин Хи) тоже вампир. Богат, обладает чувством юмора, в общем, идеален. Работал вместе с родителями Пак Джи Сана над вирусом. Мечтает использовать его в медицинских целях.

Неотключаемые субтитры: Без хардсаба
Русские субтитры: Нет
Оригинальная аудиодорожка: Есть
Качество видео: HDTVRip
Разрешение: 360p
Формат: MP4
Видео: AVC, 480х272, 512 Kbps, 25 fps
Аудио: AAC, 132kbps, 48,0 Hz, 2 ch
...5476628 - меньший формат
...4944090 - озвучка, меньший формат
...4996560 - озвучка, меньший формат
Формат : MPEG-4
Профиль формата : Base Media
Идентификатор кодека : isom (isom/iso2/avc1/mp41)
Размер файла : 291 Мбайт
Продолжительность : 1 ч. 2 м.
Общий поток : 655 Кбит/сек
Программа кодирования : Lavf57.20.100

Видео
Идентификатор : 1
Формат : AVC
Формат/Информация : Advanced Video Codec
Профиль формата : [email protected]
Настройки формата : CABAC / 4 Ref Frames
Параметр CABAC формата : Да
Параметр RefFrames формата : 4 кадра
Идентификатор кодека : avc1
Идентификатор кодека/Информация : Advanced Video Coding
Продолжительность : 1 ч. 2 м.
Битрейт : 512 Кбит/сек
Ширина : 480 пикселей
Высота : 272 пикселя
Соотношение сторон : 16:9
Соотношение сторон в оригинале : 16:9
Режим частоты кадров : Постоянный
Частота кадров : 25,000 кадров/сек
Цветовое пространство : YUV
Субдискретизация насыщенности : 4:2:0
Битовая глубина : 8 бит
Тип развёртки : Прогрессивная
Бит/(Пиксели*Кадры) : 0.157
Размер потока : 230 Мбайт (79%)
Библиотека кодирования : x264 core 146 r2555 0c21480
Настройки программы : cabac=1 / ref=3 / deblock=1:0:0 / analyse=0x3:0x113 / me=hex / subme=7 / psy=1 / psy_rd=1.00:0.00 / mixed_ref=1 / me_range=16 / chroma_me=1 / trellis=1 / 8x8dct=1 / cqm=0 / deadzone=21,11 / fast_pskip=1 / chroma_qp_offset=-2 / threads=12 / lookahead_threads=2 / sliced_threads=0 / nr=0 / decimate=1 / interlaced=0 / bluray_compat=0 / constrained_intra=0 / bframes=3 / b_pyramid=2 / b_adapt=1 / b_bias=0 / direct=1 / weightb=1 / open_gop=0 / weightp=2 / keyint=250 / keyint_min=25 / scenecut=40 / intra_refresh=0 / rc_lookahead=40 / rc=abr / mbtree=1 / bitrate=512 / ratetol=1.0 / qcomp=0.60 / qpmin=0 / qpmax=69 / qpstep=4 / ip_ratio=1.40 / aq=1:1.00

Аудио
Идентификатор : 2
Формат : AAC
Формат/Информация : Advanced Audio Codec
Профиль формата : LC
Идентификатор кодека : mp4a-40-2
Продолжительность : 1 ч. 2 м.
Duration_LastFrame : -5 мс.
Вид битрейта : Постоянный
Битрейт : 132 Кбит/сек
Каналы : 2 канала
Расположение каналов : Front: L R
Частота : 48,0 КГц
Частота кадров : 46,875 кадров/сек (1024 SPF)
Метод сжатия : С потерями
Размер потока : 58,3 Мбайт (20%)
Default : Да
AlternateGroup/String : 1


Трекер:  [ 11-Мар-2018 23:54 ]

  

Скачать .torrent

Размер .torrent файла 15 KB


Размер: 5.62 GB
Хэш (hash) релиза: 6371f71a26078502bc444294a4e7ca402f6ff9d5
Подписка на обновления:

Торренты, похожие на Кровь Beulreodeu скачать торрент

Форум Название Автор Размер S L Добавлен
Зарубежные сериалы ·· Кровь / Blood / Beulreodeu [20 из 20] [2015, медицина, романтика, фантастика, драма, вампиры, HDTVRip] [RAW] [720p] DVO (GREEN TEA) Original Galfimbul 2584824422424.07 GB 0 0 1509924494

02:28

6-Ноя-17

Еще никто не оставлял запись к записи скачать торрент Кровь Beulreodeu . Будь первым!

!Обратная связь