Tony Hawk | Storage Redirect (ROOT) v0.16.4-beta.r747.f3a5edc [Premium] | Raisa - Lagu Untukmu

Скачать через торрент Смертельная битва - Путешествие начинается Mortal Kombat - The Journey Begins Фильм бесплатно в хорошем качестве torrent

Скачивайте на UnionPeer.org фильмы через торрент без регистрации. Новинки кино в хорошем качестве через торрент. На UnionPeer.org можно скачать через торрент фильмы 2014 и 2015 годов. Самые новые фильмы.

Скачать торрент Смертельная битва - Путешествие начинается Mortal Kombat - The Journey Begins бесплатно через .torrent фильм мультфильм сериал

Статистика раздачи
Размер:  1.42 GB   |    Зарегистрирован:  3 месяца 7 дней   |    .torrent скачан:  40 раз   |   
Раздают:  1  
   
загрузка...
 
Автор Сообщение

Galfimbul

avatar Galfimbul



Смертельная битва - Путешествие начинается........Mortal Kombat - The Journey begins
Страна: США
Жанр: Мультипликационный боевик, 3D
Год выпуска: 1995
Продолжительность: 00:39:07
Перевод 1: Авторский (одноголосый закадровый) Юрий Сербин
Перевод 2: Авторский (одноголосый закадровый) Павел Санаев
Перевод 3: Авторский (одноголосый закадровый) Максим Ошурков
Перевод 4: Профессиональный (многоголосый закадровый) ВГТРК

Режиссёр: Джозеф Фрэнсис / Joseph Francis

Роли озвучивали: Джефф Беннетт, Джим Каммингс, Рон Файнберг, Дженнифер Хейл, Рэнди Хэмилтон...

Описание: Герои знаменитой на весь мир видеоигры и не менее знаменитого кинофильма (более 100млн. долларов кассовых сборов) вновь встречаются с вами в анимационной версии! Соня Блэйд, Джонни Кэйдж и Лю Кэнг прибывают на таинственный остров сразиться с демоническим колдуном Шанг Цунгом и четырёхруким гигантом Горо, а также с двумя внеземными злодеями Саб-Зиро и Скорпионом. Старинный турнир должен решить судьбу человечества...
За основу раздачи взят блюрей одноимённого полнометражного фильма, где в качестве бонусного материала был приложен этот мультфильм в DVD-качестве
Перевод и озвучка:
<img class="smile" src="//static.t-ru.org/smiles/icon_arrow.gif" alt=""> Авторский (одноголосный закадровый) | Сербин | Санаев
<img class="smile" src="//static.t-ru.org/smiles/icon_arrow.gif" alt=""> Профессиональный (многоголосый закадровый) | ВГТРК (телеканал Россия)
<img class="smile" src="//static.t-ru.org/smiles/icon_arrow.gif" alt=""> Оригинал | English

Тип релиза: BD-Remux 480i
Контейнер: MKV

Видео: 720x480 | MPEG4 | ~3944 kbps | NTSC | 29,970 fps | 4:3 | 0.190 b/p

Аудио 01: Сербин | AC3 | 2.0 | 16bit | 48kHz | 256kb/s
Аудио 02: Санаев | AC3 | 2.0 | 16bit | 48kHz | 256kb/s
Аудио 03: Ошурков | AC3 | 2.0 | 16bit | 48kHz | 256kb/s
Аудио 04: ВГТРК / Россия | AC3 | 2.0 | 16bit | 48kHz | 256kb/s
Аудио 05: English | AC3 | 2.0 | 16bit | 48kHz | 192kb/s

Субтитры: английские (SRT), английские (PGS)
Выражаю благодарность:
<img class="smile" src="//static.t-ru.org/smiles/tr_respect.gif" alt=""> lex2085 <img class="smile" src="//static.t-ru.org/smiles/tr_respect.gif" alt=""> за синхрон дорожек:
<img class="smile" src="//static.t-ru.org/smiles/icon_arrow.gif" alt=""> с авторским переводом Юрия Сербина,
<img class="smile" src="//static.t-ru.org/smiles/icon_arrow.gif" alt=""> многоголоской ВГТРК (телеканал Россия),
<img class="smile" src="//static.t-ru.org/smiles/tr_respect.gif" alt=""> paradox22222 <img class="smile" src="//static.t-ru.org/smiles/tr_respect.gif" alt=""> - за дорожку с раритетным переводом/озвучкой Павла Санаева
<img class="smile" src="//static.t-ru.org/smiles/tr_respect.gif" alt=""> d_rocker <img class="smile" src="//static.t-ru.org/smiles/tr_respect.gif" alt=""> - за дорожку с раритетным переводом/озвучкой Максима Ошуркова
<img class="smile" src="//static.t-ru.org/smiles/tr_respect.gif" alt=""> utas <img class="smile" src="//static.t-ru.org/smiles/tr_respect.gif" alt=""> - за исходник дорожки ВГТРК для синхрона
<img class="smile" src="//static.t-ru.org/smiles/tr_respect.gif" alt=""> xfiles <img class="smile" src="//static.t-ru.org/smiles/tr_respect.gif" alt=""> - за работу над субтитрами
ОбщееУникальный идентификатор : 228426837379498128802457769700776227410 (0xABD9689B643419E7948F1D15B4FC3252)Полное имя : ...\Mortal Kombat - The Journey Begins\Смертельная битва - Путешествие начинается\Mortal Kombat - The Journey begins [СЕРБИН]+[САНАЕВ]+[ВГТРК]+[ENG].mkvФормат : MatroskaРазмер файла : 1,35 ГбайтПродолжительность : 39 м.Общий поток : 4951 Кбит/секДата кодирования : UTC 2012-10-09 20:33:37Программа кодирования : mkvmerge v5.8.0 ('No Sleep / Pillow') built on Sep 2 2012 15:37:04Библиотека кодирования : libebml v1.2.3 + libmatroska v1.3.0

ВидеоИдентификатор : 1Формат : AVCФормат/Информация : Advanced Video CodecПрофиль формата : [email protected]Параметр CABAC формата : ДаПараметр ReFrames формата : 2 кадраИдентификатор кодека : V_MPEG4/ISO/AVCПродолжительность : 39 м.Вид битрейта : ПеременныйБитрейт : 3893 Кбит/секШирина : 720 пикс.Высота : 480 пикс.Соотношение сторон : 4:3Частота кадров : 59,940 кадр/секЧастота кадров в оригинале : 29,970 кадр/секСтандарт вещания : NTSCЦветовое пространство : YUVПодвыборка цветности : 4:2:0Битовая глубина : 8 битТип развёртки : ЧересстрочнаяПорядок развёртки : Нижнее поле первоеБит/(Пиксели*Кадры) : 0.188Размер потока : 1,06 Гбайт (79%)

Аудио #1Идентификатор : 2Формат : AC-3Формат/Информация : Audio Coding 3Расширение режима : CM (complete main)Идентификатор кодека : A_AC3Продолжительность : 39 м.Вид битрейта : ПостоянныйБитрейт : 256 Кбит/секКаналы : 2 каналаРасположение каналов : Front: L RЧастота : 48,0 КГцБитовая глубина : 16 битМетод сжатия : С потерямиЗадержка видео : -12 мс.Размер потока : 71,6 Мбайт (5%)Заголовок : СербинЯзык : Russian

Аудио #2Идентификатор : 3Формат : AC-3Формат/Информация : Audio Coding 3Расширение режима : CM (complete main)Идентификатор кодека : A_AC3Продолжительность : 39 м.Вид битрейта : ПостоянныйБитрейт : 256 Кбит/секКаналы : 2 каналаРасположение каналов : Front: L RЧастота : 48,0 КГцБитовая глубина : 16 битМетод сжатия : С потерямиЗадержка видео : -12 мс.Размер потока : 71,6 Мбайт (5%)Заголовок : СанаевЯзык : Russian

Аудио #3Идентификатор : 4Формат : AC-3Формат/Информация : Audio Coding 3Расширение режима : CM (complete main)Идентификатор кодека : A_AC3Продолжительность : 39 м.Вид битрейта : ПостоянныйБитрейт : 256 Кбит/секКаналы : 2 каналаРасположение каналов : Front: L RЧастота : 48,0 КГцБитовая глубина : 16 битМетод сжатия : С потерямиЗадержка видео : -12 мс.Размер потока : 71,6 Мбайт (5%)Заголовок : ВГТРКЯзык : Russian

Аудио #4Идентификатор : 5Формат : AC-3Формат/Информация : Audio Coding 3Профиль формата : Dolby DigitalРасширение режима : CM (complete main)Идентификатор кодека : A_AC3Продолжительность : 39 м.Вид битрейта : ПостоянныйБитрейт : 192 Кбит/секКаналы : 2 каналаРасположение каналов : Front: L RЧастота : 48,0 КГцБитовая глубина : 16 битМетод сжатия : С потерямиРазмер потока : 53,7 Мбайт (4%)Заголовок : EnglishЯзык : English

Текст #1Идентификатор : 6Формат : PGSИдентификатор кодека : S_HDMV/PGSИдентификатор кодека/Информация: The same subtitle format used on BDs/HD-DVDsЗаголовок : English [BD]Язык : English

Текст #2Идентификатор : 7Формат : UTF-8Идентификатор кодека : S_TEXT/UTF8Идентификатор кодека/Информация: UTF-8 Plain TextЗаголовок : English [SRT]Язык : English

Обновления раздачи:
<div class="post-box" style="border-color: red; background: yellow;">11.03.2018</div>

Трекер:  [ 11-Мар-2018 23:36 ]

  

Скачать .torrent

Размер .torrent файла 15 KB


Размер: 1.42 GB
Хэш (hash) релиза: 3c153b941af5eef90c8d9d66b3041650a49b11e5
Подписка на обновления:

Еще никто не оставлял запись к записи скачать торрент Смертельная битва - Путешествие начинается Mortal Kombat - The Journey Begins . Будь первым!

!Обратная связь