Julie Khaner | Littérature française | The Bulger Killers: Was Justice Done?

Скачать через торрент Рубикон Rubicon Фильм бесплатно в хорошем качестве torrent

Скачивайте на UnionPeer.org фильмы через торрент без регистрации. Новинки кино в хорошем качестве через торрент. На UnionPeer.org можно скачать через торрент фильмы 2014 и 2015 годов. Самые новые фильмы.

Скачать торрент Рубикон Rubicon бесплатно через .torrent фильм мультфильм сериал

Статистика раздачи
Размер:  6.49 GB   |    Зарегистрирован:  3 месяца 6 дней   |    .torrent скачан:  35 раз   |   
Раздают:  1  
   
загрузка...
 
Автор Сообщение

Galfimbul

avatar Galfimbul


Рубикон / Rubicon

Год выпуска: 2010
Страна: США
Жанр: триллер, драма, криминал, детектив
Продолжительность: ~00:45:00

Перевод: Профессиональный (двухголосый закадровый) Кубик в кубе

Режиссёр: Джереми Подесва, Брэд Андерсон, Эдвард Бьянчи

В ролях: Джеймс Бэдж Дэйл, Миранда Ричардсон, Даллас Робертс, Дэвид Раш, Арлисс Ховард, Кристофер Ивэн Уэлш, Майкл Кристофер, Лоурен Ходжес, Джессика Коллинз, Кристофер Денхам, Питер Герети, Исайя Уитлок мл.

Описание: История о тайном обществе, которое на самом деле принимает все важные решения на мировой политической арене. Рассказ сосредоточен на Уилле Трэвисе, блестящем аналитике в национальном мозговом центре, который обнаруживает, что его работодатели не те, за кого себя выдают.

Сэмпл | КИНОПОИСК | IMDB |

Качество: WEB-DLRip
Формат: AVI
Видео: 624x352, 23.976 fps, ~900 kb/s, ~0.2 bit/pixel, XviD
Аудио 1: MP3, 2 channels, 48.0 kHz, 256 kb/s [Русский]
Аудио 2: MP3, 2 channels, 48.0 kHz, 256 kb/s [Английский]
Субтитры: .str

Реклама: Отсутствует
01. Gone in the Teeth
02. The First Day of School
03. Keep the Ends Out
04. The Outsider
05. Connect the Dots
06. Look to the Ant
07. The Truth Will Out
08. Caught in the Suck
09. No Honesty in Men
10. In Whom We Trust
11. A Good Day's Work
12. Wayward Sons
13. You Never Can Win
General
Complete name : /home/roma/Видиво/Rubicon Season 1 Kybik v Kybe/Rubicon.s01e08.rus.eng.Kybik.v.Kybe.avi.part
Format : AVI
Format/Info : Audio Video Interleave
File size : 480 MiB
Duration : 45 min 21 s
Overall bit rate : 1 479 kb/s
Writing application : VirtualDubMod 1.5.10.2 (build 2540/release)
Writing library : VirtualDubMod build 2540/release
FileExtension_Invalid : avi

Video
ID : 0
Format : MPEG-4 Visual
Format profile : Advanced [email protected]
Format settings, BVOP : 2
Format settings, QPel : No
Format settings, GMC : No warppoints
Format settings, Matrix : Custom
Codec ID : XVID
Codec ID/Hint : XviD
Duration : 45 min 21 s
Bit rate : 898 kb/s
Width : 624 pixels
Height : 352 pixels
Display aspect ratio : 16:9
Frame rate : 23.976 (24000/1001) FPS
Color space : YUV
Chroma subsampling : 4:2:0
Bit depth : 8 bits
Scan type : Progressive
Compression mode : Lossy
Bits/(Pixel*Frame) : 0.171
Stream size : 291 MiB (61%)
Writing library : XviD 1.2.1 (UTC 2008-12-04)

Audio #1
ID : 1
Format : MPEG Audio
Format version : Version 1
Format profile : Layer 3
Codec ID : 55
Codec ID/Hint : MP3
Duration : 45 min 21 s
Bit rate mode : Constant
Bit rate : 256 kb/s
Channel(s) : 2 channels
Sampling rate : 48.0 kHz
Compression mode : Lossy
Stream size : 83.0 MiB (17%)
Alignment : Aligned on interleaves

Audio #2
ID : 2
Format : MPEG Audio
Format version : Version 1
Format profile : Layer 3
Mode : Joint stereo
Mode extension : MS Stereo
Codec ID : 55
Codec ID/Hint : MP3
Duration : 45 min 21 s
Bit rate mode : Constant
Bit rate : 256 kb/s
Channel(s) : 2 channels
Sampling rate : 48.0 kHz
Compression mode : Lossy
Stream size : 83.0 MiB (17%)
Alignment : Aligned on interleaves
Writing library : LAME3.98r
Encoding settings : -m j -V 4 -q 2 -lowpass 19.7
Предыдущие и альтернативные раздачи

Трекер:  [ 11-Мар-2018 21:48 ]

  

Скачать .torrent

Размер .torrent файла 67 KB


Размер: 6.49 GB
Хэш (hash) релиза: 079dfae81f6091ba4d5090a997cb0bae4561b061
Подписка на обновления:

Еще никто не оставлял запись к записи скачать торрент Рубикон Rubicon . Будь первым!

!Обратная связь