Sandina Bailo-Lape | Fangbone! | Corel PaintShop Pro X5 v15.2.

Скачать через торрент Общественная мораль Public Morals Фильм бесплатно в хорошем качестве torrent

Скачивайте на UnionPeer.org фильмы через торрент без регистрации. Новинки кино в хорошем качестве через торрент. На UnionPeer.org можно скачать через торрент фильмы 2014 и 2015 годов. Самые новые фильмы.

Скачать торрент Общественная мораль Public Morals бесплатно через .torrent фильм мультфильм сериал

Статистика раздачи
Размер:  4.32 GB   |    Зарегистрирован:  4 месяца 6 дней   |    .torrent скачан:  34 раза   |   
Раздают:  1  
   
загрузка...
 
Автор Сообщение

Galfimbul

avatar Galfimbul


Общественная мораль / Public Morals

Год выпуска: 2015
Страна: США
Жанр: драма, криминал
Продолжительность: ~00:45:00

Перевод: Профессиональный (многоголосый закадровый) IdeaFilm

Режиссёр: Эдвард Бёрнс

В ролях: Эдвард Бёрнс, Майкл Рапапорт, Остин Стоуэлл, Рубен Сантьяго-Хадсон, Уасс М. Стивенс, Катрина Боуден, Кит Ноббс, Линдон Смит, Патрик Мёрни, Элизабет Масуччи, Патрик Мёрни

Описание: Сериал рассказывает о полицейских, работающих в департаменте полиции Нью-Йорка в 1960-х, которые перешли грань между законом и преступностью.

КИНОПОИСК | IMDB

Качество: WEB-DLRip
Формат: AVI
Видео: 704х400, ~1300 Кбит/с, 23.976 fps, DivX 5
Аудио: AC-3, 6 ch, 384 Кбит/с
Субтитры: Отсутствуют

Реклама: Видео. 10 секунд в начале серии
General
Complete name : /home/roma/Видиво/Public.Morals.S01.2015.WEB-DLRip.IDEAFILM/1.avi
Format : AVI
Format/Info : Audio Video Interleave
File size : 509 MiB
Duration : 42 min 17 s
Overall bit rate : 1 682 kb/s
Writing application : VirtualDubMod 1.5.10.3 | www.virtualdub-fr.org || (build 2550/release)
Writing library : VirtualDubMod build 2550/release

Video
ID : 0
Format : MPEG-4 Visual
Format profile : Advanced [email protected]
Format settings, BVOP : 1
Format settings, QPel : No
Format settings, GMC : No warppoints
Format settings, Matrix : Default (H.263)
Codec ID : DX50
Codec ID/Hint : DivX 5
Duration : 42 min 17 s
Bit rate : 1 289 kb/s
Width : 704 pixels
Height : 400 pixels
Display aspect ratio : 16:9
Frame rate : 23.976 (24000/1001) FPS
Color space : YUV
Chroma subsampling : 4:2:0
Bit depth : 8 bits
Scan type : Progressive
Compression mode : Lossy
Bits/(Pixel*Frame) : 0.191
Stream size : 390 MiB (77%)
Writing library : XviD 73

Audio
ID : 1
Format : AC-3
Format/Info : Audio Coding 3
Format settings, Endianness : Big
Codec ID : 2000
Duration : 42 min 17 s
Bit rate mode : Constant
Bit rate : 384 kb/s
Channel(s) : 6 channels
Channel positions : Front: L C R, Side: L R, LFE
Sampling rate : 48.0 kHz
Frame rate : 31.250 FPS (1536 SPF)
Bit depth : 16 bits
Compression mode : Lossy
Stream size : 116 MiB (23%)
Alignment : Split accross interleaves
Interleave, duration : 42 ms (1.00 video frame)
Interleave, preload duration : 500 ms
Service kind : Complete Main
Предыдущие и альтернативные раздачи

Трекер:  [ 11-Мар-2018 21:18 ]

  

Скачать .torrent

Размер .torrent файла 44 KB


Размер: 4.32 GB
Хэш (hash) релиза: 0c6580826d97016e23dd4ced7a88eb70374710e4
Подписка на обновления:

Торренты, похожие на Общественная мораль Public Morals скачать торрент

Форум Название Автор Размер S L Добавлен
Зарубежные сериалы ·· Общественная мораль / Public Morals / Сезон: 1 / Серии: 1-5 из 10 (Эдвард Бёрнс) [2015, Драма, WEB-DLRip] MVO (NewStudio) Galfimbul 28240875522.63 GB 0 0 1443408701

05:51

28-Сен-15

Еще никто не оставлял запись к записи скачать торрент Общественная мораль Public Morals . Будь первым!

!Обратная связь