Шерлок Гномс | BD Ro Kyu Bu SS Subtitle Indonesia | Le Labyrinthe : Le Remède Mortel Truefrench HDRiP

Скачать через торрент По ту сторону смерти Сезон: 1 Фильм бесплатно в хорошем качестве torrent

Скачивайте на UnionPeer.org фильмы через торрент без регистрации. Новинки кино в хорошем качестве через торрент. На UnionPeer.org можно скачать через торрент фильмы 2014 и 2015 годов. Самые новые фильмы.

Скачать торрент По ту сторону смерти Сезон: 1 бесплатно через .torrent фильм мультфильм сериал

Статистика раздачи
Размер:  10.29 GB   |    Зарегистрирован:  4 месяца 4 дня   |    .torrent скачан:  118 раз   |   
Раздают:  1  
   
загрузка...
 
Автор Сообщение

Galfimbul

avatar Galfimbul


По ту сторону смерти

Год выпуска: 2017
Производство: ВайТ Медиа
Жанр: детектив, триллер
Продолжительность: 00:49:15
Субтитры: нет

Режиссер: Сергей Чекалов

В ролях: Сергей Гармаш, Светлана Ходченкова, Виктор Добронравов, Илья Любимов, Виктория Исакова, Борис Невзоров, Александр Рапопорт, Марта Тимофеева, Артем Лысков, Джан Бадмаев, Александр Цереня, Сергей Комаров

Описание:
Сюжет начинается со странной истории, в которой пытается разобраться следователь СК Глеб Точилин перед выходом на пенсию. Он должен найти исчезнувшее из морга тело Алексея Быстрова, который попал под поезд, а на следующий день… встал и ушёл на своих двоих. В поисках «живого трупа» Точилину помогает сотрудница Института мозга Юлия Дёмина, которую пропавший спас из-под колёс электрички.
В силу разницы в возрасте и мировоззрении Точилину и Дёминой трудно найти общий язык. Но разногласия уходят на второй план, когда детективам выпадает новый ребус и очередное мистическое преступление. Чтобы закрыть второе дело «Остров», напарники отправятся на морское побережье за призраками из тёмного прошлого Глеба.



Автор рипа: stalkerok

Сэмпл

Качество видео: WEBRip-AVC [Po.tu.storonu.smerti.2017.WEB-DL.(1080p).Nikolspup]
Формат видео: MKV
Видео кодек: AVC
Аудио кодек: AC3
Видео: AVC, ~1650 Кбит/сек, 1024x576 (16:9), 25 кадр/сек
Аудио: AC3, 192 Кбит/сек, 48 КГц, 2.0 - русский
---[Information] [01.03.2018 12:35:35] x264 [info]: frame I:594 Avg QP:17.13 size: 50180
---[Information] [01.03.2018 12:35:35] x264 [info]: frame P:16042 Avg QP:19.02 size: 18667
---[Information] [01.03.2018 12:35:35] x264 [info]: frame B:57238 Avg QP:22.05 size: 4677

General
Unique ID : 194396115128831195278529205801021722278 (0x923F5475A1B37A7F8F7776540071CEA6)
Complete name : V:\!Rips\Po tu storonu smerti (2017)\Po.tu.storonu.smerti.2017.WEBRip-AVC.s01.stalkerok.new-team\Po.tu.storonu.smerti.2017.WEBRip-AVC.s01e01.stalkerok.new-team.mkv
Format : Matroska
Format version : Version 4 / Version 2
File size : 638 MiB
Duration : 49 min
Overall bit rate : 1 810 kb/s
Movie name : По ту сторону смерти (2017) (Rip by stalkerok)
Encoded date : UTC 2018-03-01 17:45:43
Writing application : mkvmerge v8.6.1 ('Flying') 64bit
Writing library : libebml v1.3.3 + libmatroska v1.4.4

Video
ID : 1
Format : AVC
Format/Info : Advanced Video Codec
Format profile : [email protected]
Format settings, CABAC : Yes
Format settings, ReFrames : 12 frames
Codec ID : V_MPEG4/ISO/AVC
Duration : 49 min
Bit rate : 1 616 kb/s
Width : 1 024 pixels
Height : 576 pixels
Display aspect ratio : 16:9
Frame rate mode : Constant
Frame rate : 25.000 FPS
Color space : YUV
Chroma subsampling : 4:2:0
Bit depth : 8 bits
Scan type : Progressive
Bits/(Pixel*Frame) : 0.110
Stream size : 569 MiB (89%)
Title : По ту сторону смерти (2017) (Rip by stalkerok)
Writing library : x264 core 152 r2851kMod ba24899
Encoding settings : cabac=1 / ref=12 / deblock=1:-3:-2 / analyse=0x3:0x133 / me=umh / subme=11 / psy=1 / fade_compensate=0.00 / psy_rd=1.00:0.00 / mixed_ref=1 / me_range=32 / chroma_me=1 / trellis=2 / 8x8dct=1 / cqm=0 / deadzone=21,11 / fast_pskip=0 / chroma_qp_offset=-2 / threads=12 / lookahead_threads=3 / sliced_threads=0 / nr=0 / decimate=1 / interlaced=0 / bluray_compat=0 / constrained_intra=0 / bframes=15 / b_pyramid=2 / b_adapt=2 / b_bias=0 / direct=3 / weightb=1 / open_gop=0 / weightp=2 / keyint=250 / keyint_min=25 / scenecut=40 / intra_refresh=0 / rc_lookahead=60 / rc=crf / mbtree=0 / crf=19.5000 / qcomp=0.65 / qpmin=0 / qpmax=69 / qpstep=4 / vbv_maxrate=50000 / vbv_bufsize=62500 / crf_max=0.0 / nal_hrd=none / filler=0 / ip_ratio=1.40 / pb_ratio=1.30 / aq=3:0.85
Default : Yes
Forced : No

Audio
ID : 2
Format : AC-3
Format/Info : Audio Coding 3
Mode extension : CM (complete main)
Format settings, Endianness : Big
Codec ID : A_AC3
Duration : 49 min
Bit rate mode : Constant
Bit rate : 192 kb/s
Channel(s) : 2 channels
Channel positions : Front: L R
Sampling rate : 48.0 kHz
Frame rate : 31.250 FPS (1536 spf)
Compression mode : Lossy
Stream size : 67.6 MiB (11%)
Language : Russian
Default : Yes
Forced : No


Трекер:  [ 11-Мар-2018 20:48 ]

  

Скачать .torrent

Размер .torrent файла 28 KB


Размер: 10.29 GB
Хэш (hash) релиза: 1c741ae3d74f221e60bf48f4b5bc86cdf6811e19
Подписка на обновления:

Торренты, похожие на По ту сторону смерти Сезон: 1 скачать торрент

Форум Название Автор Размер S L Добавлен
Российские сериалы ·· По ту сторону смерти / Сезон 1 / Серия 1-2 из 16 (Сергей Чекалов) [2017, Детектив, триллер, SATRip] Обновляемая Galfimbul 13841571841.29 GB 0 0 1519682226

00:57

27-Фев-18

Еще никто не оставлял запись к записи скачать торрент По ту сторону смерти Сезон: 1 . Будь первым!

!Обратная связь