Goldrausch in Australien | Watch movie | Haikyuu!! Season 2 + Extras | 720p | BD HEVC | Dual Audio

Скачать через торрент Хемлок Гроув Hemlock Grove Фильм бесплатно в хорошем качестве torrent

Скачивайте на UnionPeer.org фильмы через торрент без регистрации. Новинки кино в хорошем качестве через торрент. На UnionPeer.org можно скачать через торрент фильмы 2014 и 2015 годов. Самые новые фильмы.

Скачать торрент Хемлок Гроув Hemlock Grove бесплатно через .torrent фильм мультфильм сериал

Статистика раздачи
Размер:  28.96 GB   |    Зарегистрирован:  3 месяца 6 дней   |    .torrent скачан:  32 раза   |   
Раздают:  1  
   
загрузка...
 
Автор Сообщение

Galfimbul

avatar Galfimbul


Хемлок Гроув / Hemlock Grove

Год выпуска: 2013 - 2015
Страна: США
Жанр: ужасы, фантастика, триллер
Продолжительность: 00:46:10

Перевод: Профессиональный (многоголосый закадровый) - NewStudio

Режиссёр: Деран Сарафян, Т.Дж. Скотт

В ролях: Фамке Янссен, Пенелопа Митчелл, Фрея Тингли, Лили Тейлор, Билл Скарсгард, Лэндон Либуарон, Дюгрэй Скотт, Николь Буавен, Аарон Дуглас, Лори Фортье

Описание: В городке Хемлок Гроув, выросшем вокруг сталелитейного завода Годфри, находят изувеченное тело девушки. Некоторые подозревают беглеца из «Белой Башни», биотехнологической лаборатории, принадлежащей бывшим владельцам завода. Другие полагают, что убийца — Питер, семнадцатилетний цыган, который рассказывает одноклассникам, что он оборотень. Третий подозреваемый — Роман , отпрыск рода Годфри. Не дожидаясь, пока власти найдут убийцу, Питер и Роман решают сами раскрыть это преступление. Им предстоит узнать немало страшных тайн о городе, в котором они живут, и о самих себе.

Ссылка на предыдущие и альтернативные раздачи
Сэмпл

Качество: WEB-DLRip
Формат: AVI
Видео: 704x400 (1.76:1), 23.976 fps, XviD build 73 ~1999 kbps avg, 0.30 bit/pixel
Аудио: 48 kHz, AC3 Dolby Digital, 3/2 (L,C,R,l,r) + LFE ch, ~384 kbps
Субтитры: отсутствуют
Реклама: нет
Сезон 01

01 (01) - Медуза в небе / Jellyfish in the Sky
02 (02) - Ангел / The Angel
03 (03) - Орден Дракона / The Order of the Dragon
04 (04) - В плохом вкусе / In Poor Taste
05 (05) - Привет, красавчик / Hello, Handsome
06 (06) - Суровое испытание / The Crucible
07 (07) - Мера беспорядка / Measure of Disorder
08 (08) - Сошествие в ад / Catabasis
09 (08) - Без чего может жить Питер / What Peter Can Live Without
10 (10) - Что хочет Господь / What God Wants
11 (11) - Цена / The Price
12 (12) - Дети ночи / Children of the Night
13 (13) - Рождение / Birth

Сезон 02

01 (14) - Кровяное давление / Blood Pressure
02 (15) - Потерянная сестричка / Gone Sis
03 (16) - Луна Реа / Luna Rea
04 (17) - Телесные жидкости / Bodily Fluids
05 (18) - Толкователь снов Хемлока / Hemlock Diego's Policy Player's Dream Book
06 (19) - Вещи, внушающие ужас / Such Dire Stuff
07 (20 ) - Потерянное поколение / Lost Generation
08 (21) - Единорог / Unicorn
09 (22) - Тинтайп / Tintypes
10 (23) - Демоны и Сириус / Demons and the Dogstar

Сезон 03

01 (24) - A Place to Fall
02 (25) - Souls on Ice
03 (26) - The House in the Woods
04 (27) - Every Beast
05 (28) - Boy in the Box
06 (29) - Pendant
07 (30) - Todos Santos
08 (31) - Dire Night on the Worm Moon
09 (32) - Damascus
10 (33) - Brian's Song
General
Complete name : H:\Hemlock.Grove.2013-2015.web-dlrip_[teko]\Season_01\s01e02_The.Angel.avi
Format : AVI
Format/Info : Audio Video Interleave
File size : 857 MiB
Duration : 50mn 2s
Overall bit rate : 2 393 Kbps
Writing application : VirtualDubMod 1.5.10.3 | www.virtualdub-fr.org || (build 2550/release)
Writing library : VirtualDubMod build 2550/release

Video
ID : 0
Format : MPEG-4 Visual
Format profile : Advanced [email protected]
Format settings, BVOP : 2
Format settings, QPel : No
Format settings, GMC : No warppoints
Format settings, Matrix : Custom
Codec ID : XVID
Codec ID/Hint : XviD
Duration : 50mn 2s
Bit rate : 2 000 Kbps
Width : 704 pixels
Height : 400 pixels
Display aspect ratio : 16:9
Frame rate : 23.976 (23976/1000) fps
Color space : YUV
Chroma subsampling : 4:2:0
Bit depth : 8 bits
Scan type : Progressive
Compression mode : Lossy
Bits/(Pixel*Frame) : 0.296
Stream size : 716 MiB (84%)
Writing library : XviD 73

Audio
ID : 1
Format : AC-3
Format/Info : Audio Coding 3
Mode extension : CM (complete main)
Format settings, Endianness : Big
Codec ID : 2000
Duration : 50mn 2s
Bit rate mode : Constant
Bit rate : 384 Kbps
Channel(s) : 6 channels
Channel positions : Front: L C R, Side: L R, LFE
Sampling rate : 48.0 KHz
Frame rate : 31.250 fps (1536 spf)
Compression mode : Lossy
Stream size : 137 MiB (16%)
Alignment : Split accross interleaves
Interleave, duration : 42 ms (1.00 video frame)
Interleave, preload duratio : 500 ms
Релиз группы:





Трекер:  [ 11-Мар-2018 19:48 ]

  

Скачать .torrent

Размер .torrent файла 147 KB


Размер: 28.96 GB
Хэш (hash) релиза: 90eae37e3d5bed5db4a986005aae7da999650f66
Подписка на обновления:

Еще никто не оставлял запись к записи скачать торрент Хемлок Гроув Hemlock Grove . Будь первым!

!Обратная связь