Jeff Stagg | LBOY-025 | Megalo Box Saison 1 Vostfr Streaming HD

Скачать через торрент Истории Райли Girl Meets World Фильм бесплатно в хорошем качестве torrent

Скачивайте на UnionPeer.org фильмы через торрент без регистрации. Новинки кино в хорошем качестве через торрент. На UnionPeer.org можно скачать через торрент фильмы 2014 и 2015 годов. Самые новые фильмы.

Скачать торрент Истории Райли Girl Meets World бесплатно через .torrent фильм мультфильм сериал

Статистика раздачи
Размер:  21.2 GB   |    Зарегистрирован:  3 месяца 6 дней   |    .torrent скачан:  23 раза   |   
Раздают:  1  
   
загрузка...
 
Автор Сообщение

Galfimbul

avatar Galfimbul


Истории Райли / Girl Meets World

Год выпуска: 2016
Страна: США
Жанр: комедия, семейный
Продолжительность: 00:22:00
Перевод: Профессиональный (дублированный) Невафильм
Режиссёр: Джоэл Цвик, Райдер Стронг, Джон Уайтселл
В ролях: Роуэн Бланчард, Бен Сэвидж, Сабрина Карпентер, Пейтон Мейер, Аугуст Матуро, Даниель Фишел, Кори Фогельманис, Джейд Холден, Сара Карпентер, Ава Колкер
Описание: Кори и Топанга состоят в браке и у них двое детей. Их старшая дочь познает жизнь, сталкиваясь с различными проблемами в семье, среди друзей и в школе, так же, как и ее родители, когда они были моложе…
Сэмпл: Скачать
Предыдущие и альтернативные раздачи
Качество: WEB-DL 1080p
Формат: MKV
Видео кодек: H.264
Аудио кодек: AC3
Видео: 1920x1080, 5009 kbps, 23.976 fps ,0.101 bit/pixel
Аудио:

русская дорожка: 48 kHz, AC3 Dolby Digital, 2/0 (L,R) ch, ~192 kbps
оригинал: 48 kHz, AC3 Dolby Digital, 3/2 (L,C,R,l,r) + LFE ch, ~384.00 kbps
Субтитры: Отсутствуют
Реклама: Отсутствует
E:\Girl Meets World (S03) WEB-DL 1080p\Girl.Meets.World.S03E01.Girl.Meets.High.School.Part.One.1080p.WEB-DL.mkv
Format : Matroska
Format version : Version 2
File size : 945 MiB
Duration : 23 min 11 s
Overall bit rate : 5 699 kb/s
Encoded date : UTC 2018-03-11 11:07:39
Writing application : mkvmerge v6.9.1 ('Blue Panther') 32bit built on Apr 18 2014 18:15:44
Writing library : libebml v1.3.0 + libmatroska v1.4.1

Video
ID : 1
Format : AVC
Format/Info : Advanced Video Codec
Format profile : [email protected]
Format settings : CABAC / 4 Ref Frames
Format settings, CABAC : Yes
Format settings, ReFrames : 4 frames
Codec ID : V_MPEG4/ISO/AVC
Duration : 23 min 11 s
Bit rate : 5 009 kb/s
Width : 1 920 pixels
Height : 1 080 pixels
Display aspect ratio : 16:9
Frame rate mode : Constant
Frame rate : 23.976 (24000/1001) FPS
Color space : YUV
Chroma subsampling : 4:2:0
Bit depth : 8 bits
Scan type : Progressive
Bits/(Pixel*Frame) : 0.101
Stream size : 831 MiB (88%)
Language : English
Default : Yes
Forced : No
Color range : Limited
Color primaries : BT.709
Transfer characteristics : BT.709
Matrix coefficients : BT.709

Audio #1
ID : 2
Format : AC-3
Format/Info : Audio Coding 3
Codec ID : A_AC3
Duration : 23 min 11 s
Bit rate mode : Constant
Bit rate : 192 kb/s
Channel(s) : 2 channels
Channel positions : Front: L R
Sampling rate : 48.0 kHz
Frame rate : 31.250 FPS (1536 SPF)
Bit depth : 16 bits
Compression mode : Lossy
Stream size : 31.8 MiB (3%)
Language : Russian
Service kind : Complete Main
Default : Yes
Forced : No

Audio #2
ID : 3
Format : AC-3
Format/Info : Audio Coding 3
Codec ID : A_AC3
Duration : 23 min 11 s
Bit rate mode : Constant
Bit rate : 384 kb/s
Channel(s) : 6 channels
Channel positions : Front: L C R, Side: L R, LFE
Sampling rate : 48.0 kHz
Frame rate : 31.250 FPS (1536 SPF)
Bit depth : 16 bits
Compression mode : Lossy
Stream size : 63.7 MiB (7%)
Language : English
Service kind : Complete Main
Default : No
Forced : No



Трекер:  [ 11-Мар-2018 17:54 ]

  

Скачать .torrent

Размер .torrent файла 55 KB


Размер: 21.2 GB
Хэш (hash) релиза: 4fdd1383675284acda36397cf5766b8e47e1cc65
Подписка на обновления:

Еще никто не оставлял запись к записи скачать торрент Истории Райли Girl Meets World . Будь первым!

!Обратная связь