Comments: 0 | Informática | Siboen mekanik ngga pinter

Скачать через торрент Борода Фильм бесплатно в хорошем качестве torrent

Скачивайте на UnionPeer.org фильмы через торрент без регистрации. Новинки кино в хорошем качестве через торрент. На UnionPeer.org можно скачать через торрент фильмы 2014 и 2015 годов. Самые новые фильмы.

Скачать торрент Борода бесплатно через .torrent фильм мультфильм сериал

Статистика раздачи
Размер:  62 MB   |    Зарегистрирован:  4 месяца 11 дней   |    .torrent скачан:  28 раз   |   
Раздают:  1  
   
загрузка...
 
Автор Сообщение

Galfimbul

avatar Galfimbul


Борода

Страна: Россия
Жанр: мультфильм для взрослых
Продолжительность: 00:07:03
Год выпуска: 2015
Перевод: не требуется
Русские субтитры: нет

Режиссёр: Софико Бадалова

Музыка: группа "Браво"

Описание: Франтоватый молодой человек влюбляется в очаровательную соседку по балкону. Но на пути их чувств неожиданно встаёт... борода молодого человека, люто заревновавшая своего хозяина к этой девушке.

Качество: WEBRip-AVC
Формат: MP4
Видео: 1108 kbps, 1280х720 (16:9), 24.000 fps, AVC ([email protected])
Аудио: 126 kbps, 44.1 kHz, 2 channels, AAC (LC)
Субтитры: отсутствуют
GeneralComplete name : Борода (2015).mp4Format : MPEG-4Format profile : Base Media / Version 2Codec ID : mp42File size : 62.4 MiBDuration : 7mn 3sOverall bit rate mode : VariableOverall bit rate : 1 237 KbpsEncoded date : UTC 2016-08-20 10:31:46Tagged date : UTC 2016-08-20 10:31:46gsst : 0gstd : 423067

VideoID : 1Format : AVCFormat/Info : Advanced Video CodecFormat profile : [email protected] settings, CABAC : YesFormat settings, ReFrames : 3 framesCodec ID : avc1Codec ID/Info : Advanced Video CodingDuration : 7mn 3sBit rate : 1 108 KbpsWidth : 1 280 pixelsHeight : 720 pixelsDisplay aspect ratio : 16:9Frame rate mode : ConstantFrame rate : 24.000 fpsColor space : YUVChroma subsampling : 4:2:0Bit depth : 8 bitsScan type : ProgressiveBits/(Pixel*Frame) : 0.050Stream size : 55.9 MiB (90%)Title : ISO Media file produced by Google Inc.Encoded date : UTC 2016-08-20 10:31:46Tagged date : UTC 2016-08-20 10:31:46Color primaries : BT.709Transfer characteristics : BT.709Matrix coefficients : BT.709

AudioID : 2Format : AACFormat/Info : Advanced Audio CodecFormat profile : LCCodec ID : 40Duration : 7mn 3sBit rate mode : VariableBit rate : 126 KbpsChannel(s) : 2 channelsChannel positions : Front: L RSampling rate : 44.1 KHzCompression mode : LossyStream size : 6.33 MiB (10%)Title : ISO Media file produced by Google Inc.Encoded date : UTC 2016-08-20 10:31:46Tagged date : UTC 2016-08-20 10:31:46


Трекер:  [ 11-Мар-2018 05:36 ]

  

Скачать .torrent

Размер .torrent файла 20 KB


Размер: 62 MB
Хэш (hash) релиза: f7d13840830cf2481b21b57ec910a5250dafb421
Подписка на обновления:

Торренты, похожие на Борода скачать торрент

Форум Название Автор Размер S L Добавлен
Мультфильмы до 2016 ·· Муфта, Полботинка и Моховая Борода / Naksitrallid (Аво Пайстик / Avo Paistik) [1984, 1987, семейный, мультфильм, DVDRip-AVC] Dub + Original est Galfimbul 13257940191.23 GB 0 0 1518291401

22:36

10-Фев-18

Азиатские фильмы ·· Оттепель / Синяя борода / Bluebeard / Haebing (Ли Су Ён / Lee Soo Yeon) [2017, Южная Корея, триллер, BDRip-AVC] DVO (den904 & DeaDsno) Galfimbul 22580496852.1 GB 0 0 1512154981

22:03

1-Дек-17

Зарубежные фильмы до 2016 ·· Красная борода / Akahige / Red Beard (Акира Куросава / Akira Kurosawa)[1965, Япония, Драма, DVD9 (Custom)] Mvo (Triumph Video) + Vo + Sub Eng, Rus + Orig Jap / Criterion Collection#159 Galfimbul 85202616327.94 GB 0 0 1485979145

22:59

1-Фев-17

Документальные фильмы и телепередачи ·· BBC: Черная борода - Пират Карибского моря / National Geographic: Blackbeard - Terror at Sea / Blackbeard - The Real Pirate of the Caribbean (The Director's Edition) (Ричард Дэйл / Richard Dale, Тилман Ремме / Tilman Remme) [2006, исторический, DVD5] Galfimbul 36586741763.41 GB 0 0 1451875724

05:48

4-Янв-16

Зарубежные фильмы до 2016 ·· Призрак Черной Бороды / Blackbeard's Ghost (Роберт Стивенсон / Robert Stevenson) [1968, США, фэнтези, комедия, семейный, WEB-DL 720p] MVO (5-й канал СПб) + DVO (DVD-Магия) + Sub Eng + Original Eng Galfimbul 38102305513.55 GB 0 0 1448218680

21:58

22-Ноя-15

Мультфильмы до 2016 ·· Очень синяя борода (Владимир Самсонов) [1979, Рисованный мультфильм, DVDRip] Galfimbul 349052928333 MB 0 0 1444845568

20:59

14-Окт-15

Зарубежные фильмы до 2016 ·· Желтая борода / Yellowbeard (Мел Дэмски / Mel Damski) [1983, Великобритания, боевик, комедия, приключения, HDTV 1080i] 2x MVO (ТВ-5, НТВ) + 2х AVO (Михалев, Иванов) + VO (Васильев) + Original Eng Galfimbul 68011845286.33 GB 0 0 1421047078

10:17

12-Янв-15

Мультфильмы до 2016 ·· Борода Короля / The King's Beard (Тони Коллингвуд / Tony Collingwood) [2002, мультфильм, семейный, DVDRip-AVC] DUB (Екатеринбург Арт) + MVO (Twister) + Original eng + rus sub Galfimbul 10715192141022 MB 0 0 1412764825

13:40

8-Окт-14

Зарубежные фильмы до 2016 ·· Пираты Карибского моря. Черная борода / Blackbeard (Ричард Дэйл / Richard Dale, Тильман Ремм / Tilman Remme) [2005, Германия, Франция, Великобритания, Приключения, исторический, DVDRip] MVO (Инис) + Dub (ТВ3) + Original Eng Galfimbul 23442309122.18 GB 0 0 1409055456

15:17

26-Авг-14

Зарубежные фильмы до 2016 ·· Восьмая жена Синей Бороды / Bluebeard's eighth wife (Эрнст Любич / Ernst Lubitsch) [1938, США, комедия, мелодрама, DVDRip] AVO (Либергал) + DVO (Светла) + Original (Eng) Galfimbul 896324352855 MB 0 0 1376534205

05:36

15-Авг-13

Зарубежные фильмы до 2016 ·· Восьмая жена Синей Бороды / Bluebeard's eighth wife (Эрнст Любич / Ernst Lubitsch) [1938, США, комедия, мелодрама, DVDRip] AVO (Либергал) + Original (ENG) Galfimbul 800319853763 MB 0 0 1364809937

12:52

1-Апр-13

Зарубежные фильмы до 2016 ·· Призрак Черной Бороды / Blackbeard's Ghost (Роберт Стивенсон / Robert Stevenson) [1968 г., фэнтези, комедия, семейный, DVDRip] МVO Galfimbul 780754944745 MB 0 0 1364797093

09:18

1-Апр-13

Российские фильмы до 2016 ·· Кешка и борода (Борис Берзнер) [1993, комедия, короткометражный, VHSRip] L 332689290317 MB 0 0 1359528240

09:44

30-Янв-13

Мультфильмы до 2016 ·· Муфта, Полботинка и Моховая Борода / Naksitrallid (Аво Пайстик / Avo Paistiku) [1984, 1987, семейный, мультфильм, DVDRip] DUB (советский дубляж) Galfimbul 760184832725 MB 0 0 1320326116

16:15

3-Ноя-11

Зарубежные фильмы до 2016 ·· Пираты семи морей: Черная борода / Blackbeard (Кевин Коннор / Kevin Connor) [2006, США, драма, приключения, BDRip 1080p] [1,2 части] MVOх2 L 1490741071013.88 GB 0 0 1304480647

06:44

4-Май-11

Российские фильмы до 2016 ·· Синяя борода (Роман Фокин) [2008 г., Драма, DVDRip] Sabin 14684774401.37 GB 0 0 1290721667

00:47

26-Ноя-10

Еще никто не оставлял запись к записи скачать торрент Борода . Будь первым!

!Обратная связь