Ringstraßenpalais | Datensicherheit | Season 9 Episode 13 The Empathy Optimization

Скачать через торрент Новый муж Серии: 1-4 из 4 Фильм бесплатно в хорошем качестве torrent

Скачивайте на UnionPeer.org фильмы через торрент без регистрации. Новинки кино в хорошем качестве через торрент. На UnionPeer.org можно скачать через торрент фильмы 2014 и 2015 годов. Самые новые фильмы.

Скачать торрент Новый муж Серии: 1-4 из 4 бесплатно через .torrent фильм мультфильм сериал

Статистика раздачи
Размер:  2.74 GB   |    Зарегистрирован:  3 месяца 8 дней   |    .torrent скачан:  76 раз   |   
Раздают:  1  
   
загрузка...
 
Автор Сообщение

Galfimbul

avatar Galfimbul


Новый муж

Год выпуска: 2017
Производство: Кинокомпания "Русское"
Жанр: мелодрама
Продолжительность: ~00:45:00 серия
Субтитры: нет

Режиссёр: Владимир Устюгов

В ролях: Ксения Кутепова, Сергей Маховиков, Марат Башаров, Светлана Немоляева, Александр Никитин, Ёла Санько, Екатерина Воронина

Описание: Тамара Волина приехала в Москву из деревни, поступила в Университет и на первом курсе вышла замуж за сына профессора. Но брак не принёс девушке счастья: муж оказался ревнивцем и пьяницей, и устроил Тамаре и их дочке Насте ужасную жизнь. Настя выросла под пьяные крики отца и звон разбитой посуды, видя страх Тамары. Из-за постоянных скандалов дома, Настя не справлялась с учёбой, и однажды Тамару вызвал директор школы — Евгений Павлович Ильин. Рядовой разговор обернулся настоящей драмой и повлёк за собой неожиданные последствия для героев.

Реклама: Нет.

Кинопоиск

Sample

Качество: WEBRip - Files-x
Формат: AVI
Видео кодек: XviD
Аудио кодек: AC3
Видео: 720x400 (1.80:1), 25 fps, XviD build 73 ~1960 kbps avg, 0.272 bit/pixel
Аудио: 48.0 kHz, AC3 Dolby Digital, 2/0 (L,R) ch, ~ 192 kbps
General
Complete name : D:\Novyj.muz.2017.WEB-DLRip.Files-x\01.Novyj.muz.2017.WEB-DLRip.Files-x.avi
Format : AVI
Format/Info : Audio Video Interleave
File size : 1.37 GiB
Duration : 1h 30mn
Overall bit rate : 2 164 Kbps
Writing application : VirtualDubMod 1.5.10.3 | www.virtualdub-fr.org || (build 2550/release)
Writing library : VirtualDubMod build 2550/release

Video
ID : 0
Format : MPEG-4 Visual
Format profile : Advanced [email protected]
Format settings, BVOP : 1
Format settings, QPel : No
Format settings, GMC : No warppoints
Format settings, Matrix : Custom
Codec ID : XVID
Codec ID/Hint : XviD
Duration : 1h 30mn
Bit rate : 1 962 Kbps
Width : 720 pixels
Height : 400 pixels
Display aspect ratio : 16:9
Frame rate : 25.000 fps
Color space : YUV
Chroma subsampling : 4:2:0
Bit depth : 8 bits
Scan type : Progressive
Compression mode : Lossy
Bits/(Pixel*Frame) : 0.272
Stream size : 1.24 GiB (91%)
Writing library : XviD 73

Audio
ID : 1
Format : AC-3
Format/Info : Audio Coding 3
Mode extension : CM (complete main)
Format settings, Endianness : Big
Codec ID : 2000
Duration : 1h 30mn
Bit rate mode : Constant
Bit rate : 192 Kbps
Channel count : 2 channels
Channel positions : Front: L R
Sampling rate : 48.0 KHz
Bit depth : 16 bits
Compression mode : Lossy
Stream size : 124 MiB (9%)
Alignment : Split accross interleaves
Interleave, duration : 40 ms (1.00 video frame)
Interleave, preload duration : 500 ms


Трекер:  [ 11-Мар-2018 01:48 ]

  

Скачать .torrent

Размер .torrent файла 14 KB


Размер: 2.74 GB
Хэш (hash) релиза: a9ab67b16be7b342ae71740134e172dd17ca1802
Подписка на обновления:

Торренты, похожие на Новый муж Серии: 1-4 из 4 скачать торрент

Форум Название Автор Размер S L Добавлен
Российские сериалы ·· Новый муж / Серии: 1-4 из 4 (Владимир Устюгов) [2017, мелодрама, HDTVRip 720p] Galfimbul 56229735975.24 GB 0 0 1520829039

07:30

12-Мар-18

Еще никто не оставлял запись к записи скачать торрент Новый муж Серии: 1-4 из 4 . Будь первым!

!Обратная связь