Mock The Week - Season 17 | Kanon (2006) | 720p |BD | Dual Audio | Quote from: PRITTS on December 24, 2012, 12:10:53 AM

Скачать через торрент Дух земли Серии: 1-6 из 6 Фильм бесплатно в хорошем качестве torrent

Скачивайте на UnionPeer.org фильмы через торрент без регистрации. Новинки кино в хорошем качестве через торрент. На UnionPeer.org можно скачать через торрент фильмы 2014 и 2015 годов. Самые новые фильмы.

Скачать торрент Дух земли Серии: 1-6 из 6 бесплатно через .torrent фильм мультфильм сериал

Статистика раздачи
Размер:  4.12 GB   |    Зарегистрирован:  4 месяца 7 дней   |    .torrent скачан:  64 раза   |   
Раздают:  1  
   
загрузка...
 
Автор Сообщение

Galfimbul

avatar Galfimbul


Дух земли

Год выпуска: 2003
Производство: Top Line
Жанр: триллер, драма, криминал
Продолжительность: ~00:48:00 серия
Субтитры: нет

Режиссёр: Владимир Янощук

В ролях: Виктория Малекторович, Андрей Краско, Николай Боклан, Павел Шмарёв, Сергей Романюк, Владимир Горянский, Алексей Вертинский, Виктор Цекало, Александр Суворов, Павел Пискун, Андрей Саминин, Наталья Наум, Сергей Лысяный, Виктор Степанов, Андрей Баса, Анастасия Баша, Виталий Линецкий

Описание: Олигархическая группировка пытается совершить сделку по захоронению ядовитых отходов из другой страны в одном из регионов Украины, и без того отравленном деятельностью Министерства Обороны.Талантливая молодая журналистка пытается раскрыть тайну Духа земли, - мистического персонажа из народных преданий, но на фоне стремительных событий остается место и для искренней, нежной и чистой любви, независящей от противоречий и обстоятельств.

Реклама: Нет.

Кинопоиск

Sample

Качество: DVDRip
Формат: AVI
Видео кодек: XviD
Аудио кодек: AC3
Видео: 688x432 (1.59:1), 25 fps, XviD build 73 ~1800 kbps avg, 0.24 bit/pixel
Аудио: 48.0 kHz, AC3 Dolby Digital, 2/0 (L,R) ch, ~ 192 kbps
General
Complete name : D:\Duh Zemli.2003.DVDRip\Duh Zemli. (1.seriya.iz.6).2003.DVDRip.avi
Format : AVI
Format/Info : Audio Video Interleave
File size : 700 MiB
Duration : 48mn 39s
Overall bit rate : 2 012 Kbps
Writing application : VirtualDubMod 1.5.10.3 | www.virtualdub-fr.org || (build 2550/release)
Writing library : VirtualDubMod build 2550/release

Video
ID : 0
Format : MPEG-4 Visual
Format profile : Advanced [email protected]
Format settings, BVOP : 1
Format settings, QPel : No
Format settings, GMC : No warppoints
Format settings, Matrix : Default (MPEG)
Codec ID : XVID
Codec ID/Hint : XviD
Duration : 48mn 39s
Bit rate : 1 810 Kbps
Width : 688 pixels
Height : 432 pixels
Display aspect ratio : 16:10
Frame rate : 25.000 fps
Color space : YUV
Chroma subsampling : 4:2:0
Bit depth : 8 bits
Scan type : Progressive
Compression mode : Lossy
Bits/(Pixel*Frame) : 0.244
Stream size : 630 MiB (90%)
Writing library : XviD 73

Audio
ID : 1
Format : AC-3
Format/Info : Audio Coding 3
Mode extension : CM (complete main)
Format settings, Endianness : Big
Codec ID : 2000
Duration : 48mn 39s
Bit rate mode : Constant
Bit rate : 192 Kbps
Channel count : 2 channels
Channel positions : Front: L R
Sampling rate : 48.0 KHz
Bit depth : 16 bits
Compression mode : Lossy
Stream size : 66.8 MiB (10%)
Alignment : Split accross interleaves
Interleave, duration : 40 ms (1.00 video frame)
Interleave, preload duration : 500 ms


Трекер:  [ 11-Мар-2018 01:48 ]

  

Скачать .torrent

Размер .torrent файла 21 KB


Размер: 4.12 GB
Хэш (hash) релиза: 97350e087c305f5bae173877aad4fca993330048
Подписка на обновления:

Еще никто не оставлял запись к записи скачать торрент Дух земли Серии: 1-6 из 6 . Будь первым!

!Обратная связь